Loading...
Error

Шесть лебедей / Die sechs Schwane (Карола Хаттоп) [2012 г., семейный, сказка, TVRip-AVC] MVO + Original

Статистика раздачи
Размер:  1,11 GB   |    Зарегистрирован:  2 месяца 26 дней   |    Скачан:  8 раз
Сидов:  1  |  0 KB/s  ]   Личеров:  0  |  0 KB/s  ]

* - сиды/пиры с внешних источников

   
 
Автор Сообщение

makkol Пол:Муж

11-Сен-2016 14:02

Шесть лебедей / Die sechs Schwäne


Год выпуска: 2012
Жанр: семейный, сказка
Производство: Германия [Kinderfilm, Zweites Deutsches Fernsehen (ZDF)]
Режиссер: Карола Хаттоп
В ролях: Синья Дикс, Юлия Ягер, Андре Качмарчик, Манфред-Антон Альгранг, Хеннинг Пекер, Юлия Шефле, Арвед Фризе, Бярне Майсел, Пауль Альхеузер, Йонас Хеммерле
Сюжет фильма:
Как-то раз в далёкой-далёкой стране отец в сердцах проклял шестерых своих детей, и те обернулись лебедями. Спустя 18 лет их младшей сестре Констанце предстоит спасти братьев и сестёр, но для этого ей придётся пройти сложный путь.
По мотивам сказки братьев Гримм.

  • Мировая премьера: 26 декабря 2012


Качество видео: TVRip-AVC

Продолжительность: 01:29:05
Формат: MKV
Видео: MPEG-4 AVC, 852x480 (16:9), 25.000 fps, 1399 kbps
Аудио #1: русский, профессиональный многоголосый закадровый (Игмар), AC3 2.0, 48 kHz, 192 kbps
Аудио #2: немецкий, оригинал, AC3 2.0, 48 kHz, 192 kbps

Код:

Формат                                   : Matroska
Версия формата                           : Version 4 / Version 2
Размер файла                             : 1,11 Гбайт
Продолжительность                        : 1 ч. 29 м.
Режим общего битрейта                    : Постоянный
Общий поток                              : 1784 Кбит/сек
Дата кодирования                         : UTC 2016-09-11 13:30:30
Программа кодирования                    : mkvmerge v7.9.0 ('Birds') 64bit
Библиотека кодирования                   : libebml v1.3.1 + libmatroska v1.4.2

Видео
Идентификатор                            : 1
Формат                                   : AVC
Формат/Информация                        : Advanced Video Codec
Профиль формата                          : Main@L3.1
Параметр CABAC формата                   : Да
Параметр ReFrames формата                : 4 кадра
Параметр GOP формата                     : M=1, N=50
Идентификатор кодека                     : V_MPEG4/ISO/AVC
Продолжительность                        : 1 ч. 29 м.
Вид битрейта                             : Постоянный
Битрейт                                  : 1399 Кбит/сек
Ширина                                   : 852 пикселя
Высота                                   : 480 пикселей
Соотношение сторон                       : 16:9
Режим частоты кадров                     : Постоянный
Частота кадров                           : 25,000 кадров/сек
Цветовое пространство                    : YUV
Субдискретизация насыщенности            : 4:2:0
Битовая глубина                          : 8 бит
Тип развёртки                            : Прогрессивная
Бит/(Пиксели*Кадры)                      : 0.137
Размер потока                            : 870 Мбайт (76%)
Язык                                     : German
Default                                  : Да
Forced                                   : Нет

Аудио #1
Идентификатор                            : 2
Формат                                   : AC-3
Формат/Информация                        : Audio Coding 3
Расширение режима                        : CM (complete main)
Параметр Endianness формата              : Big
Идентификатор кодека                     : A_AC3
Продолжительность                        : 1 ч. 29 м.
Вид битрейта                             : Постоянный
Битрейт                                  : 192 Кбит/сек
Каналы                                   : 2 канала
Расположение каналов                     : Front: L R
Частота                                  : 48,0 КГц
Метод сжатия                             : С потерями
Размер потока                            : 122 Мбайт (11%)
Язык                                     : Russian
Default                                  : Да
Forced                                   : Нет

Аудио #2
Идентификатор                            : 3
Формат                                   : AC-3
Формат/Информация                        : Audio Coding 3
Расширение режима                        : CM (complete main)
Параметр Endianness формата              : Big
Идентификатор кодека                     : A_AC3
Продолжительность                        : 1 ч. 29 м.
Вид битрейта                             : Постоянный
Битрейт                                  : 192 Кбит/сек
Каналы                                   : 2 канала
Расположение каналов                     : Front: L R
Частота                                  : 48,0 КГц
Метод сжатия                             : С потерями
Размер потока                            : 122 Мбайт (11%)
Язык                                     : German
Default                                  : Нет
Forced                                   : Нет
picpicpicpicpic
Для увеличения картинки щелкните мышкой по превью

Этот торрент недоступен для скачивания без регистрации, однако доступен по публичной magnet-ссылке (источники с публичных трекеров). Перед использованием ссылки прочтите, пожалуйста Пользовательское соглашение, а также как можно дольше оставайтесь на раздаче! Для того, чтобы скачать сам торрент-файл (который видит больше источников), а также для того, чтобы поблагодарить релизера, вам необходимо зарегистрироваться. Если регистрироваться лень - вы можете также попробовать скачать релиз по нашим партнерским ссылкам ниже.

[underverse.su].t70016.torrent
Трекер: Зарегистрирован   [ 11.09.2016 14:02 ]  

Статус: проверено (by makkol at 15.09.2016 22:40)
Поблагодарили: пока никто не поблагодарил...
Тип торрента: публичный - доступные источники с открытых трекеров: 
Размер: 1,11 GB (занимает 0,25 DVDR, для записи нужно 1 болванка DVDR/RW)
 
 

Яндекс.Метрика powered by Sphinx


В Н И М А Н И Е
Сайт не распространяет и не хранит электронные версии произведений, а лишь бесплатно и без коммерческой выгоды (не требуя взамен платы,
SMS и т.д.) предоставляет доступ к создаваемому пользователями каталогу ссылок на торрент-файлы, которые содержат только списки хеш-сумм.
Убедительная просьба с жалобами обращаться напрямую к пользователю, разместившему торрент файл.

Вверх