Loading...
Error

Жертвоприношение. Жизнь и смерть македонского царя Филиппа II (Александр Крупкин) [2010 г., документальный, познавательный, история, WEB-DLRip]

Статистика раздачи
Размер:  326 MB   |    Зарегистрирован:  2 месяца 23 дня   |    Скачан:  4 раза

Полного источника не было: 7 дней

Сидов:  0  |  0 KB/s  ]   Личеров:  0  |  0 KB/s  ]

* - сиды/пиры с внешних источников

   
 
Автор Сообщение

ARI71 Пол:Муж

10-Сен-2016 19:39

Жертвоприношение. Жизнь и смерть македонского царя Филиппа II


Год выпуска: 2010
Жанр: документальный, познавательный, история
Страна: Россия Видеостудия «МАКТО»
Режиссер: Александр Крупкин
Сюжет фильма:
Македонский царь Филипп II за 23 года создал из Македонии, страны нищих пастухов, мощное царство, вокруг которого объединились греческие государства-полисы, за исключением Спарты. Но в процессе подготовки к восточному походу на Персидскую империю Ахеменидов его убивают на свадьбе родной дочери в театре на глазах многих зрителей. Необычная судьба царя Филиппа II, отца Александра Великого, привлекает внимание историков и людей, любящих историю.
Качество видео: WEB-DLRip

Продолжительность: 00:26:58
Формат: AVI
Видео: XviD, 720x400, 1488 kbps
Аудио: русский, (оригинал), AC3 2.0, 192.00 kbps

Код:

Общее
Полное имя : D:\Жизнь и смерть македонского царя Филипа II.2010.WEB-DLRip.Files-х.avi
Формат : AVI
Формат/Информация : Audio Video Interleave
Размер файла : 326 Мбайт
Продолжительность : 26 м.
Общий поток : 1689 Кбит/сек
Программа кодирования : VirtualDubMod 1.5.10.3 | www.virtualdub-fr.org || (build 2550/release)
Библиотека кодирования : VirtualDubMod build 2550/release

Видео
Идентификатор : 0
Формат : MPEG-4 Visual
Профиль формата : Advanced Simple@L5
Параметр BVOP формата : 1
Параметр QPel формата : Нет
Параметр GMC формата : Без точки перехода
Параметр матрицы формата : Выборочная
Идентификатор кодека : XVID
Идентификатор кодека/Подсказка : XviD
Продолжительность : 26 м.
Битрейт : 1488 Кбит/сек
Ширина : 720 пикселей
Высота : 400 пикселей
Соотношение сторон : 16:9
Частота кадров : 25,000 кадров/сек
Цветовое пространство : YUV
Субдискретизация насыщенности : 4:2:0
Битовая глубина : 8 бит
Тип развёртки : Прогрессивная
Метод сжатия : С потерями
Бит/(Пиксели*Кадры) : 0.207
Размер потока : 287 Мбайт (88%)
Библиотека кодирования : XviD 73

Аудио
Идентификатор : 1
Формат : AC-3
Формат/Информация : Audio Coding 3
Расширение режима : CM (complete main)
Параметр Endianness формата : Big
Идентификатор кодека : 2000
Продолжительность : 26 м.
Вид битрейта : Постоянный
Битрейт : 192 Кбит/сек
Каналы : 2 канала
Расположение каналов : Front: L R
Частота : 48,0 КГц
Частота кадров : 31,250 кадров/сек (1536 spf)
Метод сжатия : С потерями
Размер потока : 37,0 Мбайт (11%)
Выравнивание : Разделение по промежуткам
Продолжительность промежутка : 40 мс. (1,00 видеокадр)
Время предзагрузки промежутка : 500 мс.
picpicpicpicpic
Для увеличения картинки щелкните мышкой по превью

Этот торрент недоступен для скачивания без регистрации, однако доступен по публичной magnet-ссылке (источники с публичных трекеров). Перед использованием ссылки прочтите, пожалуйста Пользовательское соглашение, а также как можно дольше оставайтесь на раздаче! Для того, чтобы скачать сам торрент-файл (который видит больше источников), а также для того, чтобы поблагодарить релизера, вам необходимо зарегистрироваться. Если регистрироваться лень - вы можете также попробовать скачать релиз по нашим партнерским ссылкам ниже.

[underverse.su].t70008.torrent
Трекер: Зарегистрирован   [ 10.09.2016 19:39 ]  

Статус: проверено (by makkol at 10.09.2016 21:25)
Поблагодарили: 1 человек
Тип торрента: публичный - доступные источники с открытых трекеров: 
Размер: 326 MB (занимает 0,07 DVDR, для записи нужно 1 болванка DVDR/RW)
 
 
Похожие темы
Форум Тема Автор Торрент Отв. Посл. сооб.
Зарубежное кино [DVDRip, Low-Res HDRip, и т.д.] Жертвоприношение / Offret / The Sacrifice (Андрей Тарковский) [1986 г., Философская притча, DVDRip] Needle
1 | 0

0 | 1126

10

19.09.2010 21:38


Яндекс.Метрика powered by Sphinx


В Н И М А Н И Е
Сайт не распространяет и не хранит электронные версии произведений, а лишь бесплатно и без коммерческой выгоды (не требуя взамен платы,
SMS и т.д.) предоставляет доступ к создаваемому пользователями каталогу ссылок на торрент-файлы, которые содержат только списки хеш-сумм.
Убедительная просьба с жалобами обращаться напрямую к пользователю, разместившему торрент файл.

Вверх