Loading...
Error

Операция Стоунхендж. Тайна, скрытая под камнями / Operation Stonehenge: What Lies Beneath (1-2 серии из 2) / (Джереми Тернер) [2014 г., документальный, познавательный, HDTVRip] DVO

Статистика раздачи
Размер:  1,57 GB   |    Зарегистрирован:  2 месяца 26 дней   |    Скачан:  4 раза

Полного источника не было: 1 месяц 10 дней

Сидов:  0  |  0 KB/s  ]   Личеров:  0  |  0 KB/s  ]

* - сиды/пиры с внешних источников

   
 
Автор Сообщение

ARI71 Пол:Муж

10-Сен-2016 16:01

Операция Стоунхендж. Тайна, скрытая под камнями / Operation Stonehenge: What Lies Beneath (1-2 серии из 2)


Год выпуска: 2014
Жанр: документальный, познавательный
Страна: Великобритания ВВС
Режиссер: Джереми Тернер
Сюжет фильма:
Стоунхендж является иконой доисторической британской культуры, загадка, что интересовала археологов и туристов на протяжении веков. Почему он появился здесь? Какое его значение? И какие силы вдохновили его создателей? Группа международных археологов нашли новый подход, который, возможно, является ключом к тайнам Стоунхенджа...


Качество видео: HDTVRip

Продолжительность: 2 x ~ 00:59:00
Формат: AVI
Видео: XviD, 720x400, 1700 kbps
Аудио: русский, двухголосый закадровый [профессиональный], AC3 2.0, 192.00 kbps

Код:

Общее
Полное имя : D:\BBC_Operation Stonehenge.HDTVRip.by RockeT [KaztorrentS]\BBC_Operation Stonehenge_01.HDTVRip.by RockeT [KaztorrentS].avi
Формат : AVI
Формат/Информация : Audio Video Interleave
Размер файла : 801 Мбайт
Продолжительность : 58 м.
Общий поток : 1902 Кбит/сек
Программа кодирования : VirtualDubMod 1.5.10.3 | www.virtualdub-fr.org || (build 2550/release)
Библиотека кодирования : VirtualDubMod build 2550/release

Видео
Идентификатор : 0
Формат : MPEG-4 Visual
Профиль формата : Advanced Simple@L5
Параметр BVOP формата : 1
Параметр QPel формата : Нет
Параметр GMC формата : Без точки перехода
Параметр матрицы формата : Default (MPEG)
Идентификатор кодека : XVID
Идентификатор кодека/Подсказка : XviD
Продолжительность : 58 м.
Битрейт : 1700 Кбит/сек
Ширина : 720 пикселей
Высота : 400 пикселей
Соотношение сторон : 16:9
Частота кадров : 25,000 кадров/сек
Цветовое пространство : YUV
Субдискретизация насыщенности : 4:2:0
Битовая глубина : 8 бит
Тип развёртки : Прогрессивная
Метод сжатия : С потерями
Бит/(Пиксели*Кадры) : 0.236
Размер потока : 716 Мбайт (89%)
Библиотека кодирования : XviD 1.2.1 (UTC 2008-12-04)

Аудио
Идентификатор : 1
Формат : AC-3
Формат/Информация : Audio Coding 3
Расширение режима : CM (complete main)
Параметр Endianness формата : Big
Идентификатор кодека : 2000
Продолжительность : 58 м.
Вид битрейта : Постоянный
Битрейт : 192 Кбит/сек
Каналы : 2 канала
Расположение каналов : Front: L R
Частота : 48,0 КГц
Частота кадров : 31,250 кадров/сек (1536 spf)
Метод сжатия : С потерями
Размер потока : 80,9 Мбайт (10%)
Выравнивание : Разделение по промежуткам
Продолжительность промежутка : 40 мс. (1,00 видеокадр)
Время предзагрузки промежутка : 500 мс.
Автор Рипа: RockeT
picpicpicpicpic
Для увеличения картинки щелкните мышкой по превью

Этот торрент недоступен для скачивания без регистрации, однако доступен по публичной magnet-ссылке (источники с публичных трекеров). Перед использованием ссылки прочтите, пожалуйста Пользовательское соглашение, а также как можно дольше оставайтесь на раздаче! Для того, чтобы скачать сам торрент-файл (который видит больше источников), а также для того, чтобы поблагодарить релизера, вам необходимо зарегистрироваться. Если регистрироваться лень - вы можете также попробовать скачать релиз по нашим партнерским ссылкам ниже.

[underverse.su].t70001.torrent
Трекер: Зарегистрирован   [ 10.09.2016 16:01 ]  

Статус: проверено (by makkol at 12.09.2016 10:32)
Поблагодарили: пока никто не поблагодарил...
Тип торрента: публичный - доступные источники с открытых трекеров: 
Размер: 1,57 GB (занимает 0,36 DVDR, для записи нужно 1 болванка DVDR/RW)
 
 

Яндекс.Метрика powered by Sphinx


В Н И М А Н И Е
Сайт не распространяет и не хранит электронные версии произведений, а лишь бесплатно и без коммерческой выгоды (не требуя взамен платы,
SMS и т.д.) предоставляет доступ к создаваемому пользователями каталогу ссылок на торрент-файлы, которые содержат только списки хеш-сумм.
Убедительная просьба с жалобами обращаться напрямую к пользователю, разместившему торрент файл.

Вверх