Loading...
Error

Войны за моллюсков / Dive Wars Australia (2 сезон: 1-3 серии) [2014 г., документальный, научно-популярный, HDTVRip 720p] VO

Статистика раздачи
Размер:  3,85 GB   |    Зарегистрирован:  2 месяца 27 дней   |    Скачан:  1 раз

Полного источника не было: 4 дня

Сидов:  0  |  0 KB/s  ]   Личеров:  0  |  0 KB/s  ]

* - сиды/пиры с внешних источников

   
 
Автор Сообщение

ARI71 Пол:Муж

10-Сен-2016 08:43

Войны за моллюсков / Dive Wars Australia (2 сезон: 1-3 серии)


Год выпуска: 2014
Жанр: документальный, научно-популярный
Страна: Австралия Discovery Channel
Сюжет фильма:
В экстремальном проекте под названием «Войны за моллюсков» на познавательном телеканале Discovery пойдет речь об очень редких представителях океанской фауны. Раковины, рожденные в дикой среде имеют гораздо большую ценность, нежели выросшие на искусственных фермах. Например, австралийские морские ушки, или как еще их называют, абалоны, добываются очень непросто. У южного побережья материка обитает большая популяция акул, но это не отпугивает ныряльщиков за дорогими жемчужными раковинами. Постоянно, не смотря на коварство зубатых хищниц и непредсказуемые штормовые ветры, эти отчаянные люди погружаются в глубины океана, лишь бы собрать в них богатый улов этих ценных моллюсков. Нередко им приходится выжидать подходящую погоду, и длиться вынужденный перерыв может неделями. Как сделать так, чтобы бизнес не потерпел крах, и заодно избежать смертельной опасности? Необходима не только невероятная смелость, но и изобретательность…
Качество видео: HDTVRip 720p

Продолжительность: 3 x ~ 00:44:00
Формат: MKV
Видео: MPEG-4 AVC, 1280x720, ~3916 kbps
Аудио: русский, одноголосый закадровый (профессиональный), MP2 2.0, ~192.00 kbps

Код:

Общее
Уникальный идентификатор : 172563749592393082939127489242684082239 (0x81D291BB637AFD76D2640EE2A2EA483F)
Полное имя : D:\Войны за моллюсков 2014.HDTVRip.720p.GeneralFilm\01. Войны за моллюсков.mkv
Формат : Matroska
Версия формата : Version 2
Размер файла : 1,28 Гбайт
Продолжительность : 43 м.
Режим общего битрейта : Переменный
Общий поток : 4192 Кбит/сек
Программа кодирования : Lavf54.63.104
Библиотека кодирования : Lavf54.63.104 / Lavf54.63.104

Видео
Идентификатор : 1
Формат : AVC
Формат/Информация : Advanced Video Codec
Профиль формата : High@L4.1
Параметр CABAC формата : Да
Параметр ReFrames формата : 3 кадра
Идентификатор кодека : V_MPEG4/ISO/AVC
Продолжительность : 43 м.
Вид битрейта : Переменный
Битрейт : 3916 Кбит/сек
Максимальный битрейт : 4000 Кбит/сек
Ширина : 1280 пикселей
Высота : 720 пикселей
Соотношение сторон : 16:9
Соотношение сторон в оригинале : 16:9
Режим частоты кадров : Постоянный
Частота кадров : 30,000 кадров/сек
Стандарт вещания : NTSC
Цветовое пространство : YUV
Субдискретизация насыщенности : 4:2:0
Битовая глубина : 8 бит
Тип развёртки : Чересстрочная
Метод сохранения типа развёртки : Раздельные поля
Порядок развёртки : Верхнее поле первое
Бит/(Пиксели*Кадры) : 0.142
Размер потока : 1,19 Гбайт (93%)
Default : Нет
Forced : Нет
Цветовой диапазон : Limited
Основные цвета : BT.709
Характеристики трансфера : BT.709
Коэффициенты матрицы : BT.709

Аудио
Идентификатор : 2
Формат : MPEG Audio
Версия формата : Version 1
Профиль формата : Layer 2
Идентификатор кодека : A_MPEG/L2
Идентификатор кодека/Подсказка : MP2
Продолжительность : 43 м.
Вид битрейта : Постоянный
Битрейт : 192 Кбит/сек
Каналы : 2 канала
Частота : 48,0 КГц
Метод сжатия : С потерями
Размер потока : 59,9 Мбайт (5%)
Default : Да
Forced : Нет
Релиз от - ishana7709
picpicpicpicpic
Для увеличения картинки щелкните мышкой по превью

Этот торрент недоступен для скачивания без регистрации, однако доступен по публичной magnet-ссылке (источники с публичных трекеров). Перед использованием ссылки прочтите, пожалуйста Пользовательское соглашение, а также как можно дольше оставайтесь на раздаче! Для того, чтобы скачать сам торрент-файл (который видит больше источников), а также для того, чтобы поблагодарить релизера, вам необходимо зарегистрироваться. Если регистрироваться лень - вы можете также попробовать скачать релиз по нашим партнерским ссылкам ниже.

[underverse.su].t69990.torrent
Трекер: Зарегистрирован   [ 10.09.2016 08:43 ]  

Статус: проверено (by makkol at 10.09.2016 09:10)
Поблагодарили: пока никто не поблагодарил...
Тип торрента: публичный - доступные источники с открытых трекеров: 
Размер: 3,85 GB (занимает 0,88 DVDR, для записи нужно 1 болванка DVDR/RW)
 
 
Похожие темы
Форум Тема Автор Торрент Отв. Посл. сооб.
Discovery Войны за моллюсков / Dive Wars Australia (3 сезон: 1-3 серии из 3) [2015 г., документальный, приключения, HDTVRip] VO ARI71
0 | 1

0 | 194

0

15.11.2016 16:43


Яндекс.Метрика powered by Sphinx


В Н И М А Н И Е
Сайт не распространяет и не хранит электронные версии произведений, а лишь бесплатно и без коммерческой выгоды (не требуя взамен платы,
SMS и т.д.) предоставляет доступ к создаваемому пользователями каталогу ссылок на торрент-файлы, которые содержат только списки хеш-сумм.
Убедительная просьба с жалобами обращаться напрямую к пользователю, разместившему торрент файл.

Вверх