Loading...
Error

Заповедная Россия. Кедровая падь (Наталия Кузнецова) [2013 г., документальный, научно-познавательный, природа, HDTVRip]

Статистика раздачи
Размер:  338 MB   |    Зарегистрирован:  2 месяца 26 дней   |    Скачан:  0 раз

Полного источника не было: Никогда

Сидов:  0  |  0 KB/s  ]   Личеров:  0  |  0 KB/s  ]

* - сиды/пиры с внешних источников

   
 
Автор Сообщение

ARI71 Пол:Муж

08-Сен-2016 11:13

Заповедная Россия. Кедровая падь


Год выпуска: 2013
Жанр: документальный, научно-познавательный, природа
Страна: Россия Русское Географическое Общество
Режиссер: Наталия Кузнецова
Сюжет фильма:
Первые лучи солнца озаряют берег Тихого океана, спящие мысы и сопки. В кристально чистых заводях отражаются силуэты восточно-маньчжурских гор. Отсюда начинается заповедник Кедровая Падь - крохотный островок нетронутой уссурийской тайги. Испокон веков под сенью этого дикого таежного сада находили себе пропитание кабаны и пятнистые олени, которые в свою очередь служили залогом выживания для диких кошек Приморья. Но XX век с его индустриальным освоением нарушил баланс Природы. Нещадная вырубка лесов для строительства железной дороги оголяла сопку за сопкой. В бушевавших во время засух пожарах гибли сотни животных. Исконные угодья леопарда и тигра стремительно сокращались, а квоты на их отстрел увеличивались. Единственным спасением оставался заповедник.
Качество видео: HDTVRip

Продолжительность: 00:27:18
Формат: AVI
Видео: XviD, 720x400, 1530 kbps
Аудио: русский, (оригинал), AC3 2.0, 192.00 kbps

Код:

Общее
Полное имя : D:\Заповедная Россия. Кедровая падь 2013.HDTVRip..avi
Формат : AVI
Формат/Информация : Audio Video Interleave
Размер файла : 338 Мбайт
Продолжительность : 27 м.
Общий поток : 1731 Кбит/сек
Программа кодирования : VirtualDubMod 1.5.10.3 | www.virtualdub-fr.org || (build 2550/release)
Библиотека кодирования : VirtualDubMod build 2550/release

Видео
Идентификатор : 0
Формат : MPEG-4 Visual
Профиль формата : Advanced Simple@L5
Параметр BVOP формата : 1
Параметр QPel формата : Нет
Параметр GMC формата : Без точки перехода
Параметр матрицы формата : Default (H.263)
Идентификатор кодека : XVID
Идентификатор кодека/Подсказка : XviD
Продолжительность : 27 м.
Битрейт : 1530 Кбит/сек
Ширина : 720 пикселей
Высота : 400 пикселей
Соотношение сторон : 16:9
Частота кадров : 25,000 кадров/сек
Цветовое пространство : YUV
Субдискретизация насыщенности : 4:2:0
Битовая глубина : 8 бит
Тип развёртки : Прогрессивная
Метод сжатия : С потерями
Бит/(Пиксели*Кадры) : 0.212
Размер потока : 299 Мбайт (88%)
Библиотека кодирования : XviD 1.2.1 (UTC 2008-12-04)

Аудио
Идентификатор : 1
Формат : AC-3
Формат/Информация : Audio Coding 3
Расширение режима : CM (complete main)
Параметр Endianness формата : Big
Идентификатор кодека : 2000
Продолжительность : 27 м.
Вид битрейта : Постоянный
Битрейт : 192 Кбит/сек
Каналы : 2 канала
Расположение каналов : Front: L R
Частота : 48,0 КГц
Частота кадров : 31,250 кадров/сек (1536 spf)
Метод сжатия : С потерями
Размер потока : 37,5 Мбайт (11%)
Выравнивание : Разделение по промежуткам
Продолжительность промежутка : 40 мс. (1,00 видеокадр)
Время предзагрузки промежутка : 500 мс.
picpicpicpicpic
Для увеличения картинки щелкните мышкой по превью

Этот торрент недоступен для скачивания без регистрации, однако доступен по публичной magnet-ссылке (источники с публичных трекеров). Перед использованием ссылки прочтите, пожалуйста Пользовательское соглашение, а также как можно дольше оставайтесь на раздаче! Для того, чтобы скачать сам торрент-файл (который видит больше источников), а также для того, чтобы поблагодарить релизера, вам необходимо зарегистрироваться. Если регистрироваться лень - вы можете также попробовать скачать релиз по нашим партнерским ссылкам ниже.

[underverse.su].t69945.torrent
Трекер: Зарегистрирован   [ 08.09.2016 11:13 ]  

Статус: проверено (by Паукан at 08.09.2016 11:22)
Поблагодарили: пока никто не поблагодарил...
Тип торрента: публичный - доступные источники с открытых трекеров: 
Размер: 338 MB (занимает 0,08 DVDR, для записи нужно 1 болванка DVDR/RW)
 
 
Похожие темы
Форум Тема Автор Торрент Отв. Посл. сооб.
Научно-популярные фильмы Заповедная Россия. Галичья Гора (Виктор Гундарев) [2012 г., документальный, научно-познавательный, природа, HDTVRip] ARI71
1 | 0

0 | 206

0

07.09.2016 06:17

Научно-популярные фильмы Заповедная Россия. Таганай. Ильменский заповедник (Наталия Кузнецова) [2013 г., документальный, научно-познавательный, природа, HDTVRip] ARI71
1 | 1

0 | 220

1

07.09.2016 05:48

Научно-популярные фильмы Заповедная Россия. Саяно-Шушенский заповедник (Виктор Гундарев) [2011 г., документальный, научно-познавательный, природа, IPTVRip] ARI71
3 | 0

0 | 407

0

08.09.2016 10:53

Научно-популярные фильмы Заповедная Россия. Нижнесвирский заповедник (Виктор Гундарев) [2012 г., документальный, научно-познавательный, природа, HDTVRip] ARI71
2 | 0

0 | 194

0

07.09.2016 06:02


Яндекс.Метрика powered by Sphinx


В Н И М А Н И Е
Сайт не распространяет и не хранит электронные версии произведений, а лишь бесплатно и без коммерческой выгоды (не требуя взамен платы,
SMS и т.д.) предоставляет доступ к создаваемому пользователями каталогу ссылок на торрент-файлы, которые содержат только списки хеш-сумм.
Убедительная просьба с жалобами обращаться напрямую к пользователю, разместившему торрент файл.

Вверх