Loading...
Error

Заповедная Россия. Саяно-Шушенский заповедник (Виктор Гундарев) [2011 г., документальный, научно-познавательный, природа, IPTVRip]

Статистика раздачи
Размер:  371 MB   |    Зарегистрирован:  2 месяца 27 дней   |    Скачан:  0 раз

Полного источника не было: Никогда

Сидов:  0  |  0 KB/s  ]   Личеров:  0  |  0 KB/s  ]

* - сиды/пиры с внешних источников

   
 
Автор Сообщение

ARI71 Пол:Муж

08-Сен-2016 10:53

Заповедная Россия. Саяно-Шушенский заповедник


Год выпуска: 2011
Жанр: документальный, научно-познавательный, природа
Страна: Россия Русское географическое общество
Режиссер: Виктор Гундарев
Текст читает: Дмитрий Полонский
Сюжет фильма:
Бескрайние просторы, высокие горы, прозрачные реки. Это сердце Сибири – Саяно-Шушенский заповедник. Здесь природа не просто царит, она внушает к себе уважение. Сюда приходят не за трофеями, не для того, чтобы взять что-то. Сюда приходят с чистыми помыслами – чтобы учиться. Учиться тому самому правильному мироустройству, которое только возможно. Возможно в природе, в мире цветов и деревьев, в мире рыб, птиц и зверей.
В высокогорье Саяно-Шушенского заповедника обитает уникальный хищник - снежный барс. С помощью фото-ловушек и специальных ошейников специалисты ведут строгий учет этих животных и следят за их жизнью. Сегодня у всех телезрителей есть исключительная возможность - познакомиться с флорой и фауной заповедника, а также понаблюдать за происходящими в нем природными процессами.
Качество видео: IPTVRip

Продолжительность: 00:26:49
Формат: AVI
Видео: DivX 5, 704x400, 1795 kbps
Аудио: русский, (оригинал), MP3 2.0, 128.00 kbps

Код:

Общее
Полное имя : D:\Заповедная Россия. Саяно-Шушенский заповедник.avi
Формат : AVI
Формат/Информация : Audio Video Interleave
Размер файла : 371 Мбайт
Продолжительность : 26 м.
Общий поток : 1933 Кбит/сек
Библиотека кодирования : VirtualDub build 32706/release

Видео
Идентификатор : 0
Формат : MPEG-4 Visual
Профиль формата : Advanced Simple@L5
Параметр BVOP формата : 2
Параметр QPel формата : Нет
Параметр GMC формата : Без точки перехода
Параметр матрицы формата : Default (MPEG)
Идентификатор кодека : DX50
Идентификатор кодека/Подсказка : DivX 5
Продолжительность : 26 м.
Битрейт : 1795 Кбит/сек
Ширина : 704 пикселя
Высота : 400 пикселей
Соотношение сторон : 16:9
Частота кадров : 25,000 кадров/сек
Цветовое пространство : YUV
Субдискретизация насыщенности : 4:2:0
Битовая глубина : 8 бит
Тип развёртки : Прогрессивная
Метод сжатия : С потерями
Бит/(Пиксели*Кадры) : 0.255
Размер потока : 344 Мбайт (93%)
Библиотека кодирования : XviD 1.0.1 (UTC 2004-06-05)

Аудио
Идентификатор : 1
Формат : MPEG Audio
Версия формата : Version 1
Профиль формата : Layer 3
Режим : Joint stereo
Расширение режима : MS Stereo
Идентификатор кодека : 55
Идентификатор кодека/Подсказка : MP3
Продолжительность : 26 м.
Вид битрейта : Постоянный
Битрейт : 128 Кбит/сек
Каналы : 2 канала
Частота : 48,0 КГц
Метод сжатия : С потерями
Размер потока : 24,6 Мбайт (7%)
Выравнивание : Разделение по промежуткам
Продолжительность промежутка : 40 мс. (1,00 видеокадр)
Время предзагрузки промежутка : 500 мс.
picpicpicpicpic
Для увеличения картинки щелкните мышкой по превью

Этот торрент недоступен для скачивания без регистрации, однако доступен по публичной magnet-ссылке (источники с публичных трекеров). Перед использованием ссылки прочтите, пожалуйста Пользовательское соглашение, а также как можно дольше оставайтесь на раздаче! Для того, чтобы скачать сам торрент-файл (который видит больше источников), а также для того, чтобы поблагодарить релизера, вам необходимо зарегистрироваться. Если регистрироваться лень - вы можете также попробовать скачать релиз по нашим партнерским ссылкам ниже.

[underverse.su].t69937.torrent
Трекер: Зарегистрирован   [ 08.09.2016 10:53 ]  

Статус: проверено (by Паукан at 08.09.2016 11:22)
Поблагодарили: пока никто не поблагодарил...
Тип торрента: публичный - доступные источники с открытых трекеров: 
Размер: 371 MB (занимает 0,08 DVDR, для записи нужно 1 болванка DVDR/RW)
 
 
Похожие темы
Форум Тема Автор Торрент Отв. Посл. сооб.
Научно-популярные фильмы Заповедная Россия. Галичья Гора (Виктор Гундарев) [2012 г., документальный, научно-познавательный, природа, HDTVRip] ARI71
1 | 0

0 | 208

0

07.09.2016 06:17

Научно-популярные фильмы Заповедная Россия. Таганай. Ильменский заповедник (Наталия Кузнецова) [2013 г., документальный, научно-познавательный, природа, HDTVRip] ARI71
1 | 1

0 | 222

1

07.09.2016 05:48

Научно-популярные фильмы Заповедная Россия. Кедровая падь (Наталия Кузнецова) [2013 г., документальный, научно-познавательный, природа, HDTVRip] ARI71
0 | 0

0 | 440

0

08.09.2016 11:13

Научно-популярные фильмы Заповедная Россия. Нижнесвирский заповедник (Виктор Гундарев) [2012 г., документальный, научно-познавательный, природа, HDTVRip] ARI71
2 | 0

0 | 196

0

07.09.2016 06:02


Яндекс.Метрика powered by Sphinx


В Н И М А Н И Е
Сайт не распространяет и не хранит электронные версии произведений, а лишь бесплатно и без коммерческой выгоды (не требуя взамен платы,
SMS и т.д.) предоставляет доступ к создаваемому пользователями каталогу ссылок на торрент-файлы, которые содержат только списки хеш-сумм.
Убедительная просьба с жалобами обращаться напрямую к пользователю, разместившему торрент файл.

Вверх