Loading...
Error

Роковая тема (Памяти Александра Каверзнева) / (Владимир Осьминин) [1991 г., документальный, биография, кинохроника, история, TVRip]

Статистика раздачи
Размер:  551 MB   |    Зарегистрирован:  3 месяца 2 дня   |    Скачан:  1 раз

Полного источника не было: 2 месяца 29 дней

Сидов:  0  |  0 KB/s  ]   Личеров:  0  |  0 KB/s  ]

* - сиды/пиры с внешних источников

   
 
Автор Сообщение

ARI71 Пол:Муж

07-Сен-2016 15:33

Роковая тема (Памяти Александра Каверзнева)


Год выпуска: 1991
Жанр: документальный, биография, кинохроника, история
Страна: СССР Студия документальных телефильмов, ТПО "Союзтелефильм"
Режиссер: Владимир Осьминин
Сюжет фильма:
Документальный фильм памяти замечательного тележурналиста Александра Каверзнева. В фильме - съемки с мест командировок журналиста - Камбоджа, Венгрия, Китай и Афганистан... А также фрагменты из незаконченного фильма А. Каверзнева "Афганский дневник"

Александр Александрович КАВЕРЗНЕВ, (16.06.1932 — 29.03.1983), советский, российский тележурналист, один из ведущих очень популярной в свое время программы «Международная панорама», автор захватывающих сюжетов из самых разных точек планеты. За творческие успехи А. Каверзнев был удостоен Государственной премии СССР и Международной премии и медали Юлиуса Фучика.
На телевидении в 70-80-е годы ушедшего столетия Александр Каверзнев был, пожалуй, лучшим политическим обозревателем. За свою достаточно недолгую творческую жизнь он сумел создать множество прекрасных телепередач, фильмов, политических репортажей. Журналистские маршруты Александра Каверзнева пролегали по всему миру. Польша, Болгария, Чехословакия, Румыния, ГДР, Вьетнам, КНДР, КНР, Куба - вот далеко не полный перечень стран, в которых он работал. Последней командировкой журналиста стал Афганистан, где к тому времени уже пятый год военнослужащие Советской армии выполняли интернациональный долг. Как человек творческий и активный Каверзнев хотел на месте событий попытаться понять - зачем мы там...
Качество видео: TVRip

Продолжительность: 00:57:10
Формат: AVI
Видео: DivX 5, 672x504, 1145 kbps
Аудио: русский, (оригинал), MP3 2.0, 192.00 kbps

Код:

Общее
Полное имя : D:\Rokovaya_tema_Kaverznev.avi
Формат : AVI
Формат/Информация : Audio Video Interleave
Размер файла : 551 Мбайт
Продолжительность : 57 м.
Общий поток : 1347 Кбит/сек
Библиотека кодирования : VirtualDub-MPEG2 build 24586/release

Видео
Идентификатор : 0
Формат : MPEG-4 Visual
Параметр BVOP формата : 1
Параметр QPel формата : Нет
Параметр GMC формата : Без точки перехода
Параметр матрицы формата : Default (H.263)
Режим смешивания : Сжатый битовый поток
Идентификатор кодека : DX50
Идентификатор кодека/Подсказка : DivX 5
Продолжительность : 57 м.
Битрейт : 1145 Кбит/сек
Ширина : 672 пикселя
Высота : 504 пикселя
Соотношение сторон : 4:3
Частота кадров : 25,000 кадров/сек
Цветовое пространство : YUV
Субдискретизация насыщенности : 4:2:0
Битовая глубина : 8 бит
Тип развёртки : Прогрессивная
Метод сжатия : С потерями
Бит/(Пиксели*Кадры) : 0.135
Размер потока : 468 Мбайт (85%)
Библиотека кодирования : DivX 6.7.0 (UTC 2007-09-20)

Аудио
Идентификатор : 1
Формат : MPEG Audio
Версия формата : Version 1
Профиль формата : Layer 3
Режим : Joint stereo
Идентификатор кодека : 55
Идентификатор кодека/Подсказка : MP3
Продолжительность : 57 м.
Вид битрейта : Постоянный
Битрейт : 192 Кбит/сек
Каналы : 2 канала
Частота : 48,0 КГц
Метод сжатия : С потерями
Размер потока : 78,5 Мбайт (14%)
Выравнивание : Разделение по промежуткам
Продолжительность промежутка : 40 мс. (1,00 видеокадр)
Время предзагрузки промежутка : 500 мс.
picpicpicpicpic
Для увеличения картинки щелкните мышкой по превью

Этот торрент недоступен для скачивания без регистрации, однако доступен по публичной magnet-ссылке (источники с публичных трекеров). Перед использованием ссылки прочтите, пожалуйста Пользовательское соглашение, а также как можно дольше оставайтесь на раздаче! Для того, чтобы скачать сам торрент-файл (который видит больше источников), а также для того, чтобы поблагодарить релизера, вам необходимо зарегистрироваться. Если регистрироваться лень - вы можете также попробовать скачать релиз по нашим партнерским ссылкам ниже.

[underverse.su].t69900.torrent
Трекер: Зарегистрирован   [ 07.09.2016 15:33 ]  

Статус: проверено (by makkol at 07.09.2016 15:41)
Поблагодарили: пока никто не поблагодарил...
Тип торрента: публичный - доступные источники с открытых трекеров: 
Размер: 551 MB (занимает 0,12 DVDR, для записи нужно 1 болванка DVDR/RW)
 
 

Яндекс.Метрика powered by Sphinx


В Н И М А Н И Е
Сайт не распространяет и не хранит электронные версии произведений, а лишь бесплатно и без коммерческой выгоды (не требуя взамен платы,
SMS и т.д.) предоставляет доступ к создаваемому пользователями каталогу ссылок на торрент-файлы, которые содержат только списки хеш-сумм.
Убедительная просьба с жалобами обращаться напрямую к пользователю, разместившему торрент файл.

Вверх