Loading...
Error

Герника / Gernika (Кольдо Серра) [2016 г., мелодрама, военный, WEB-DLRip] MVO

Статистика раздачи
Размер:  1,46 GB   |    Зарегистрирован:  10 месяцев   |    Скачан:  3 раза

Полного источника не было: 8 месяцев

Сидов:  0  |  0 KB/s  ]   Личеров:  0  |  0 KB/s  ]

* - сиды/пиры с внешних источников

   
 
Автор Сообщение

makkol Пол:Муж

07-Сен-2016 12:50

Герника / Gernika


Год выпуска: 2016
Жанр: мелодрама, военный
Производство: Испания [Anima Pictures, Gernika The Movie]
Режиссер: Кольдо Серра
В ролях: Берн Горман, Джеймс Д’Арси, Джек Девенпорт, Мария Вальверде, Уго Сильва, Ирена Эсколар, Ингрид Гарсия Йонсон, Йоахим Пауль Ассбёк
Сюжет фильма:
Романтическая драма о разочарованном и циничном американском журналисте, который оказывается единственным «вестником правды» из испанского города Герника, где зверствует гражданская война. В его работу и дальнейшую судьбу вмешивается местная республиканка Тереза, ответственная за цензуру исходящих новостей...

  • Мировая премьера: 26 апреля 2016


Качество видео: WEB-DLRip

Продолжительность: 01:50:38
Формат: AVI
Видео: XviD, 720x304 (2.35:1), 23.976 fps, 1496 kbps
Аудио: русский, профессиональный многоголосый закадровый, AC3 5.1, 48 kHz, 384 kbps

Официальный звук - взят с DVD (немецкого диска)

Код:

Format : AVI
Format/Info : Audio Video Interleave
File size : 1.46 GiB
Duration : 1h 50mn
Overall bit rate : 1 890 Kbps
Writing application : VirtualDubMod 1.5.10.3 | www.virtualdub-fr.org || (build 2550/release)
Writing library : VirtualDubMod build 2550/release

Video
ID : 0
Format : MPEG-4 Visual
Format profile : Advanced Simple@L5
Format settings, BVOP : 1
Format settings, QPel : No
Format settings, GMC : No warppoints
Format settings, Matrix : Custom
Codec ID : XVID
Codec ID/Hint : XviD
Duration : 1h 50mn
Bit rate : 1 496 Kbps
Width : 720 pixels
Height : 304 pixels
Display aspect ratio : 2.35:1
Frame rate : 23.976 (23976/1000) fps
Color space : YUV
Chroma subsampling : 4:2:0
Bit depth : 8 bits
Scan type : Progressive
Compression mode : Lossy
Bits/(Pixel*Frame) : 0.285
Stream size : 1.16 GiB (79%)
Writing library : XviD 65

Audio
ID : 1
Format : AC-3
Format/Info : Audio Coding 3
Mode extension : CM (complete main)
Format settings, Endianness : Big
Codec ID : 2000
Duration : 1h 50mn
Bit rate mode : Constant
Bit rate : 384 Kbps
Channel(s) : 6 channels
Channel positions : Front: L C R, Side: L R, LFE
Sampling rate : 48.0 KHz
Frame rate : 31.250 fps (1536 spf)
Compression mode : Lossy
Stream size : 304 MiB (20%)
Alignment : Split accross interleaves
Interleave, duration : 42 ms (1.00 video frame)
Interleave, preload duratio : 500 ms
Релиз:
Релиз без рекламы


picpicpicpicpic
Для увеличения картинки щелкните мышкой по превью

Этот торрент недоступен для скачивания без регистрации, однако доступен по публичной magnet-ссылке (источники с публичных трекеров). Перед использованием ссылки прочтите, пожалуйста Пользовательское соглашение, а также как можно дольше оставайтесь на раздаче! Для того, чтобы скачать сам торрент-файл (который видит больше источников), а также для того, чтобы поблагодарить релизера, вам необходимо зарегистрироваться. Если регистрироваться лень - вы можете также попробовать скачать релиз по нашим партнерским ссылкам ниже.

[underverse.su].t69879.torrent
Трекер: Зарегистрирован   [ 07.09.2016 12:50 ]  

Статус: T временная (by makkol at 08.09.2016 23:04)
Поблагодарили: пока никто не поблагодарил...
Тип торрента: публичный - доступные источники с открытых трекеров: 
Размер: 1,46 GB (занимает 1/3 DVDR, для записи нужно 1 болванка DVDR/RW)
 
 
Похожие темы
Форум Тема Автор Торрент Отв. Посл. сооб.
T Зарубежное кино [DVDRip, Low-Res HDRip, и т.д.] Герника / Gernika (Кольдо Серра) [2016 г., мелодрама, военный, WEB-DLRip] MVO (Parovoz Production) makkol
11 | 0

0 | 358

1

04.08.2016 11:22

Зарубежное кино [DVDRip, Low-Res HDRip, и т.д.] Герника / Gernika (Кольдо Серра / Koldo Serra) [2016 г., мелодрама, военный, HDRip] MVO 90ytr90
24 | 0

0 | 267

2

14.01.2017 14:14

Зарубежное кино [DVDRip, Low-Res HDRip, и т.д.] Герника / Gernika (Кольдо Серра / Koldo Serra) [2016 г., мелодрама, военный, HDRip] MVO + Original (Eng) 90ytr90
2 | 0

0 | 428

0

14.01.2017 14:18

T Зарубежное кино [HDDVDRip / BDRip / WEB-DL / HDTV 1080/720р] Герника / Gernika (Кольдо Серра) [2016 г., мелодрама, военный, WEB-DL 1080p] MVO + Original + Subs makkol
6 | 0

0 | 323

1

07.09.2016 13:01

T Зарубежное кино [HDDVDRip / BDRip / WEB-DL / HDTV 1080/720р] Герника / Gernika (Кольдо Серра) [2016 г., мелодрама, военный, WEB-DL 720p] MVO (Parovoz Production) makkol
1 | 0

0 | 304

2

04.08.2016 11:27

T Зарубежное кино [HDDVDRip / BDRip / WEB-DL / HDTV 1080/720р] Герника / Gernika (Кольдо Серра) [2016 г., мелодрама, военный, WEB-DL 1080p] MVO (Parovoz Production) makkol
3 | 0

0 | 348

3

04.08.2016 11:31

Зарубежное кино [HDDVDRip / BDRip / WEB-DL / HDTV 1080/720р] Герника / Gernika (Кольдо Серра / Koldo Serra) [2016 г., мелодрама, военный, BDRip 720p] MVO + Original (Eng) 90ytr90
1 | 0

0 | 407

3

14.01.2017 14:23


Яндекс.Метрика powered by Sphinx


В Н И М А Н И Е
Сайт не распространяет и не хранит электронные версии произведений, а лишь бесплатно и без коммерческой выгоды (не требуя взамен платы,
SMS и т.д.) предоставляет доступ к создаваемому пользователями каталогу ссылок на торрент-файлы, которые содержат только списки хеш-сумм.
Убедительная просьба с жалобами обращаться напрямую к пользователю, разместившему торрент файл.

Вверх