Loading...
Error

Дальневосточный морской заповедник (Илья Петров) [2012 г., документальный, познавательный, природа, фауна, флора, TVRip]

Статистика раздачи
Размер:  467 MB   |    Зарегистрирован:  3 месяца 2 дня   |    Скачан:  3 раза

Полного источника не было: 3 дня

Сидов:  0  |  0 KB/s  ]   Личеров:  0  |  0 KB/s  ]

* - сиды/пиры с внешних источников

   
 
Автор Сообщение

ARI71 Пол:Муж

07-Сен-2016 06:36

Дальневосточный морской заповедник


Год выпуска: 2012
Жанр: документальный, познавательный, природа, фауна, флора
Страна: Россия Russian Travel Guide TV
Режиссер: Илья Петров
Ведущий: Денис Головко
Сюжет фильма:
На юге Дальнего Востока России в Японском море находится биосферный морской заповедник, созданный в 1978 году для охраны и изучения биологического разнообразия подводного мира. В его акватории более пяти тысяч видов растений и животных, 150 из которых занесены в Красную книгу.
Качество видео: TVRip

Продолжительность: 00:46:28
Формат: AVI
Видео: FMP4, 720x320, 1202 kbps
Аудио: русский, (оригинал), MP3 2.0, 192.00 kbps

Код:

Общее
Полное имя : D:\Дальневосточный морской заповедник.avi
Формат : AVI
Формат/Информация : Audio Video Interleave
Размер файла : 467 Мбайт
Продолжительность : 46 м.
Общий поток : 1406 Кбит/сек
Программа кодирования : Lavf51.12.1

Видео
Идентификатор : 0
Формат : MPEG-4 Visual
Профиль формата : Simple@L1
Параметр BVOP формата : Нет
Параметр QPel формата : Нет
Параметр GMC формата : Без точки перехода
Параметр матрицы формата : Default (H.263)
Идентификатор кодека : FMP4
Продолжительность : 46 м.
Битрейт : 1202 Кбит/сек
Ширина : 720 пикселей
Высота : 320 пикселей
Соотношение сторон : 2,25:1
Частота кадров : 25,000 кадров/сек
Цветовое пространство : YUV
Субдискретизация насыщенности : 4:2:0
Битовая глубина : 8 бит
Тип развёртки : Прогрессивная
Метод сжатия : С потерями
Бит/(Пиксели*Кадры) : 0.209
Размер потока : 399 Мбайт (85%)
Библиотека кодирования : Lavc51.40.4

Аудио
Идентификатор : 1
Формат : MPEG Audio
Версия формата : Version 1
Профиль формата : Layer 3
Режим : Joint stereo
Расширение режима : MS Stereo
Идентификатор кодека : 55
Идентификатор кодека/Подсказка : MP3
Продолжительность : 46 м.
Вид битрейта : Постоянный
Битрейт : 192 Кбит/сек
Каналы : 2 канала
Частота : 44,1 КГц
Метод сжатия : С потерями
Размер потока : 63,8 Мбайт (14%)
Выравнивание : Соединение по промежуткам
Продолжительность промежутка : 26 мс. (0,65 видеокадр)
picpicpicpicpic
Для увеличения картинки щелкните мышкой по превью

Этот торрент недоступен для скачивания без регистрации, однако доступен по публичной magnet-ссылке (источники с публичных трекеров). Перед использованием ссылки прочтите, пожалуйста Пользовательское соглашение, а также как можно дольше оставайтесь на раздаче! Для того, чтобы скачать сам торрент-файл (который видит больше источников), а также для того, чтобы поблагодарить релизера, вам необходимо зарегистрироваться. Если регистрироваться лень - вы можете также попробовать скачать релиз по нашим партнерским ссылкам ниже.

[underverse.su].t69862.torrent
Трекер: Зарегистрирован   [ 07.09.2016 06:36 ]  

Статус: проверено (by makkol at 07.09.2016 13:11)
Поблагодарили: 1 человек
Тип торрента: публичный - доступные источники с открытых трекеров: 
Размер: 467 MB (занимает 0,1 DVDR, для записи нужно 1 болванка DVDR/RW)
 
 

Яндекс.Метрика powered by Sphinx


В Н И М А Н И Е
Сайт не распространяет и не хранит электронные версии произведений, а лишь бесплатно и без коммерческой выгоды (не требуя взамен платы,
SMS и т.д.) предоставляет доступ к создаваемому пользователями каталогу ссылок на торрент-файлы, которые содержат только списки хеш-сумм.
Убедительная просьба с жалобами обращаться напрямую к пользователю, разместившему торрент файл.

Вверх