Loading...
Error

Заповедная Россия. Нижнесвирский заповедник (Виктор Гундарев) [2012 г., документальный, научно-познавательный, природа, HDTVRip]

Статистика раздачи
Размер:  324 MB   |    Зарегистрирован:  2 месяца 29 дней   |    Скачан:  0 раз

Полного источника не было: Никогда

Сидов:  0  |  0 KB/s  ]   Личеров:  0  |  0 KB/s  ]

* - сиды/пиры с внешних источников

   
 
Автор Сообщение

ARI71 Пол:Муж

07-Сен-2016 06:02

Заповедная Россия. Нижнесвирский заповедник


Год выпуска: 2012
Жанр: документальный, научно-познавательный, природа
Страна: Россия Русское Географическое Общество
Режиссер: Виктор Гундарев
Текст читает: Дмитрий Полонский
Сюжет фильма:
Нижнесвирский заповедник, царство сосновых боров, топких болот, зарослей черники и клюквы, живописных холодных рек и озёр, а ещё сотен видов перелётных птиц. Главные водные артерии Ладожское озеро и река Свирь, вдоль которых испокон веков мигрируют перелётные птицы. Для наблюдения за ними и был создан заповедник.
Качество видео: HDTVRip

Продолжительность: 00:27:28
Формат: AVI
Видео: XviD, 720x400, 1519 kbps
Аудио: русский, (оригинал), MP3 2.0, 116.00 kbps

Код:

Общее
Полное имя : D:\Заповедная Россия Нижнесвирский заповедник.avi
Формат : AVI
Формат/Информация : Audio Video Interleave
Размер файла : 324 Мбайт
Продолжительность : 27 м.
Режим общего битрейта : Переменный
Общий поток : 1647 Кбит/сек
Программа кодирования : VirtualDubMod 1.5.10.3 | www.virtualdub-fr.org || (build 2550/release)
Библиотека кодирования : VirtualDubMod build 2550/release

Видео
Идентификатор : 0
Формат : MPEG-4 Visual
Профиль формата : Advanced Simple@L5
Параметр BVOP формата : 1
Параметр QPel формата : Нет
Параметр GMC формата : Без точки перехода
Параметр матрицы формата : Default (MPEG)
Идентификатор кодека : XVID
Идентификатор кодека/Подсказка : XviD
Продолжительность : 27 м.
Битрейт : 1519 Кбит/сек
Ширина : 720 пикселей
Высота : 400 пикселей
Соотношение сторон : 16:9
Частота кадров : 25,000 кадров/сек
Цветовое пространство : YUV
Субдискретизация насыщенности : 4:2:0
Битовая глубина : 8 бит
Тип развёртки : Прогрессивная
Метод сжатия : С потерями
Бит/(Пиксели*Кадры) : 0.211
Размер потока : 298 Мбайт (92%)
Библиотека кодирования : XviD 1.2.1 (UTC 2008-12-04)

Аудио
Идентификатор : 1
Формат : MPEG Audio
Версия формата : Version 1
Профиль формата : Layer 3
Режим : Joint stereo
Расширение режима : MS Stereo
Идентификатор кодека : 55
Идентификатор кодека/Подсказка : MP3
Продолжительность : 27 м.
Вид битрейта : Переменный
Битрейт : 116 Кбит/сек
Номинальный битрейт : 128 Кбит/сек
Каналы : 2 канала
Частота : 48,0 КГц
Метод сжатия : С потерями
Размер потока : 22,7 Мбайт (7%)
Выравнивание : Соединение по промежуткам
Продолжительность промежутка : 24 мс. (0,60 видеокадр)
Время предзагрузки промежутка : 495 мс.
Библиотека кодирования : LAME3.99 
Настройки программы : -m j -V 4 -q 2 -lowpass 17 --abr 128
picpicpicpicpic
Для увеличения картинки щелкните мышкой по превью

Этот торрент недоступен для скачивания без регистрации, однако доступен по публичной magnet-ссылке (источники с публичных трекеров). Перед использованием ссылки прочтите, пожалуйста Пользовательское соглашение, а также как можно дольше оставайтесь на раздаче! Для того, чтобы скачать сам торрент-файл (который видит больше источников), а также для того, чтобы поблагодарить релизера, вам необходимо зарегистрироваться. Если регистрироваться лень - вы можете также попробовать скачать релиз по нашим партнерским ссылкам ниже.

[underverse.su].t69859.torrent
Трекер: Зарегистрирован   [ 07.09.2016 06:02 ]  

Статус: проверено (by makkol at 07.09.2016 13:08)
Поблагодарили: пока никто не поблагодарил...
Тип торрента: публичный - доступные источники с открытых трекеров: 
Размер: 324 MB (занимает 0,07 DVDR, для записи нужно 1 болванка DVDR/RW)
 
 
Похожие темы
Форум Тема Автор Торрент Отв. Посл. сооб.
Научно-популярные фильмы Заповедная Россия. Галичья Гора (Виктор Гундарев) [2012 г., документальный, научно-познавательный, природа, HDTVRip] ARI71
1 | 0

0 | 209

0

07.09.2016 06:17

Научно-популярные фильмы Заповедная Россия. Таганай. Ильменский заповедник (Наталия Кузнецова) [2013 г., документальный, научно-познавательный, природа, HDTVRip] ARI71
1 | 1

0 | 222

1

07.09.2016 05:48

Научно-популярные фильмы Заповедная Россия. Саяно-Шушенский заповедник (Виктор Гундарев) [2011 г., документальный, научно-познавательный, природа, IPTVRip] ARI71
3 | 0

0 | 410

0

08.09.2016 10:53

Научно-популярные фильмы Заповедная Россия. Кедровая падь (Наталия Кузнецова) [2013 г., документальный, научно-познавательный, природа, HDTVRip] ARI71
0 | 0

0 | 440

0

08.09.2016 11:13


Яндекс.Метрика powered by Sphinx


В Н И М А Н И Е
Сайт не распространяет и не хранит электронные версии произведений, а лишь бесплатно и без коммерческой выгоды (не требуя взамен платы,
SMS и т.д.) предоставляет доступ к создаваемому пользователями каталогу ссылок на торрент-файлы, которые содержат только списки хеш-сумм.
Убедительная просьба с жалобами обращаться напрямую к пользователю, разместившему торрент файл.

Вверх