Loading...
Error

В глубинах Ледовитого океана / Deepsea Under The Pole (Терри Роберт) [2010 г., документальный, научно-познавательный, дайвинг, SatRip] Dub

Статистика раздачи
Размер:  616 MB   |    Зарегистрирован:  3 месяца 2 дня   |    Скачан:  2 раза

Полного источника не было: 1 месяц 25 дней

Сидов:  0  |  0 KB/s  ]   Личеров:  0  |  0 KB/s  ]

* - сиды/пиры с внешних источников

   
 
Автор Сообщение

ARI71 Пол:Муж

07-Сен-2016 05:33

В глубинах Ледовитого океана / Deepsea Under The Pole


Год выпуска: 2010
Жанр: документальный, научно-познавательный, дайвинг
Страна: Франция National Geographic, Docside, Base Oceans
Режиссер: Терри Роберт
Сюжет фильма:
Экспедиция, которая должна была пройти 500 миль по льду Северного Ледовитого океана, из-за неожиданно начавшегося разрушения льда, обязана была прервать свою работу. Планировалось затратить 45 дней на переход на лыжах и 15 дней на погружения, но этому воспрепятствовало стихийное разламывание льда на части. В результате было принято решение о срочной эвакуации. Участники экспедиции говорят, что во время погружения за несколько дней до этого, слышали ломающийся звук льдин.
Качество видео: SatRip

Продолжительность: 00:44:58
Формат: AVI
Видео: XviD, 704x400, 1777 kbps
Аудио: русский, (дублированный), MP3 2.0, 128.00 kbps

Код:

Общее
Полное имя : D:\В глубинах Ледовитого океана.avi
Формат : AVI
Формат/Информация : Audio Video Interleave
Размер файла : 616 Мбайт
Продолжительность : 44 м.
Общий поток : 1915 Кбит/сек
Программа кодирования : VirtualDubModRus 1.5.10.2 (build 2542/release)
Библиотека кодирования : VirtualDubMod build 2542/release

Видео
Идентификатор : 0
Формат : xvid
Идентификатор кодека : xvid
Продолжительность : 44 м.
Битрейт : 1777 Кбит/сек
Ширина : 704 пикселя
Высота : 400 пикселей
Соотношение сторон : 16:9
Частота кадров : 25,000 кадров/сек
Бит/(Пиксели*Кадры) : 0.252
Размер потока : 572 Мбайт (93%)

Аудио
Идентификатор : 1
Формат : MPEG Audio
Версия формата : Version 1
Профиль формата : Layer 3
Режим : Joint stereo
Идентификатор кодека : 55
Идентификатор кодека/Подсказка : MP3
Продолжительность : 44 м.
Вид битрейта : Постоянный
Битрейт : 128 Кбит/сек
Каналы : 2 канала
Частота : 48,0 КГц
Метод сжатия : С потерями
Размер потока : 41,2 Мбайт (7%)
Выравнивание : Разделение по промежуткам
Продолжительность промежутка : 40 мс. (1,00 видеокадр)
Время предзагрузки промежутка : 500 мс.
Документальный дубляж:
Голос рассказчика - полный дубляж
Интервью - слышна оригинальная речь
Перевод - (АРК-ТВ)
Текст читает - Денис Некрасов
picpicpicpicpic
Для увеличения картинки щелкните мышкой по превью

Этот торрент недоступен для скачивания без регистрации, однако доступен по публичной magnet-ссылке (источники с публичных трекеров). Перед использованием ссылки прочтите, пожалуйста Пользовательское соглашение, а также как можно дольше оставайтесь на раздаче! Для того, чтобы скачать сам торрент-файл (который видит больше источников), а также для того, чтобы поблагодарить релизера, вам необходимо зарегистрироваться. Если регистрироваться лень - вы можете также попробовать скачать релиз по нашим партнерским ссылкам ниже.

[underverse.su].t69855.torrent
Трекер: Зарегистрирован   [ 07.09.2016 05:33 ]  

Статус: проверено (by 90ytr90 at 07.09.2016 05:59)
Поблагодарили: 1 человек
Тип торрента: публичный - доступные источники с открытых трекеров: 
Размер: 616 MB (занимает 0,14 DVDR, для записи нужно 1 болванка DVDR/RW)
 
 

Яндекс.Метрика powered by Sphinx


В Н И М А Н И Е
Сайт не распространяет и не хранит электронные версии произведений, а лишь бесплатно и без коммерческой выгоды (не требуя взамен платы,
SMS и т.д.) предоставляет доступ к создаваемому пользователями каталогу ссылок на торрент-файлы, которые содержат только списки хеш-сумм.
Убедительная просьба с жалобами обращаться напрямую к пользователю, разместившему торрент файл.

Вверх