Loading...
Error

Евгений Лебедев. Пока идет спектакль [1997 г., документальный, биография, искусство, TVRip]

Статистика раздачи
Размер:  289 MB   |    Зарегистрирован:  2 месяца 26 дней   |    Скачан:  0 раз

Полного источника не было: Никогда

Сидов:  0  |  0 KB/s  ]   Личеров:  0  |  0 KB/s  ]

* - сиды/пиры с внешних источников

   
 
Автор Сообщение

ARI71 Пол:Муж

06-Сен-2016 15:19

Евгений Лебедев. Пока идет спектакль


Год выпуска: 1997
Жанр: документальный, биография, искусство
Страна: Россия ТРК "Петербург - 5 канал"
В ролях: Евгений Лебедев
Сюжет фильма:
Передача в основном посвящена последней роли Лебедева в спектакле "Село Степанчиково" ("Фома") в БДТ (в постановке Александра Товстоногова).

Евге́ний Алексе́евич Ле́бедев (2 [15] января 1917, Балаково, — 9 июня 1997, Санкт-Петербург) — советский и российский актёр театра и кино, педагог. Народный артист СССР (1968). Лауреат Ленинской (1986), Сталинской премии первой степени (1950) и Государственной премии СССР (1968).
Качество видео: TVRip

Продолжительность: 00:28:08
Формат: AVI
Видео: DivX 5, 512x384, 1299 kbps
Аудио: русский, (оригинал), MP3 2.0, 128.00 kbps

Код:

Общее
Полное имя : D:\Lebedev_1997.avi
Формат : AVI
Формат/Информация : Audio Video Interleave
Размер файла : 289 Мбайт
Продолжительность : 28 м.
Общий поток : 1437 Кбит/сек
Библиотека кодирования : VirtualDub build 24469/release

Видео
Идентификатор : 0
Формат : MPEG-4 Visual
Параметр BVOP формата : 2
Параметр QPel формата : Нет
Параметр GMC формата : Без точки перехода
Параметр матрицы формата : Default (H.263)
Режим смешивания : Сжатый битовый поток
Идентификатор кодека : DX50
Идентификатор кодека/Подсказка : DivX 5
Продолжительность : 28 м.
Битрейт : 1299 Кбит/сек
Ширина : 512 пикселей
Высота : 384 пикселя
Соотношение сторон : 4:3
Частота кадров : 25,000 кадров/сек
Цветовое пространство : YUV
Субдискретизация насыщенности : 4:2:0
Битовая глубина : 8 бит
Тип развёртки : Прогрессивная
Метод сжатия : С потерями
Бит/(Пиксели*Кадры) : 0.264
Размер потока : 261 Мбайт (90%)
Библиотека кодирования : DivX 6.2.2 (UTC 2006-04-26)

Аудио
Идентификатор : 1
Формат : MPEG Audio
Версия формата : Version 1
Профиль формата : Layer 3
Режим : Joint stereo
Расширение режима : MS Stereo
Идентификатор кодека : 55
Идентификатор кодека/Подсказка : MP3
Продолжительность : 28 м.
Вид битрейта : Постоянный
Битрейт : 128 Кбит/сек
Каналы : 2 канала
Частота : 44,1 КГц
Метод сжатия : С потерями
Размер потока : 25,8 Мбайт (9%)
Выравнивание : Разделение по промежуткам
Продолжительность промежутка : 40 мс. (0,99 видеокадр)
Время предзагрузки промежутка : 500 мс.
picpicpicpicpic
Для увеличения картинки щелкните мышкой по превью

Этот торрент недоступен для скачивания без регистрации, однако доступен по публичной magnet-ссылке (источники с публичных трекеров). Перед использованием ссылки прочтите, пожалуйста Пользовательское соглашение, а также как можно дольше оставайтесь на раздаче! Для того, чтобы скачать сам торрент-файл (который видит больше источников), а также для того, чтобы поблагодарить релизера, вам необходимо зарегистрироваться. Если регистрироваться лень - вы можете также попробовать скачать релиз по нашим партнерским ссылкам ниже.

[underverse.su].t69825.torrent
Трекер: Зарегистрирован   [ 06.09.2016 15:19 ]  

Статус: проверено (by 90ytr90 at 06.09.2016 22:09)
Поблагодарили: пока никто не поблагодарил...
Тип торрента: публичный - доступные источники с открытых трекеров: 
Размер: 289 MB (занимает 0,06 DVDR, для записи нужно 1 болванка DVDR/RW)
 
 

Яндекс.Метрика powered by Sphinx


В Н И М А Н И Е
Сайт не распространяет и не хранит электронные версии произведений, а лишь бесплатно и без коммерческой выгоды (не требуя взамен платы,
SMS и т.д.) предоставляет доступ к создаваемому пользователями каталогу ссылок на торрент-файлы, которые содержат только списки хеш-сумм.
Убедительная просьба с жалобами обращаться напрямую к пользователю, разместившему торрент файл.

Вверх