Loading...
Error

Невероятное перемещение (Александр Анисимов) [2014 г., детский, приключения, SatRip]

Статистика раздачи
Размер:  1,46 GB   |    Зарегистрирован:  3 месяца 1 день   |    Скачан:  1 раз

Полного источника не было: 1 день 22 часа

Сидов:  0  |  0 KB/s  ]   Личеров:  0  |  0 KB/s  ]

* - сиды/пиры с внешних источников

   
 
Автор Сообщение

makkol Пол:Муж

06-Сен-2016 10:16

Невероятное перемещение


Год выпуска: 2014
Жанр: детский, приключения
Производство: Беларусь [Беларусьфильм]
Режиссер: Александр Анисимов
В ролях: Сева Малицкий, Катя Острога, Александр Овчинников, Дмитрий Есеневич, Геннадий Фомин, Наталья Горбатенко, Сергей Савенков, Артур Шуляк, Диана Чикранова, Маша Козловская, Анатолий Голуб, Анна Южакова, Светлана Суховей, Александр Жданович, Инна Савенкова, Алеся Лесникова, Наталья Онищенко, Виктор Васильев, Александр Демьянков
Сюжет фильма:
Школьник Ваня Фёдоров убегает с уроков, чтобы, воспользовавшись отсутствием родителей, протестировать изобретенную им самим универсальную компьютерную программу для приготовления уроков. Но из-за сбоя в программе Ваня вместо ожидаемого реферата получает трёх гостей из прошлого, одним из которых является не кто-нибудь, а Филипп Ауреол Теофраст Бомбаст фон Гогенхайм, в будущем известный, как доктор медицины Парацельс. Ваня и его сестра Лиза должны во что бы то ни стало успеть вернуть Парацельса в прошлое, чтобы он мог совершить свои открытия и остановить вспышку чумы…

Качество видео: SatRip

Продолжительность: 01:29:22
Формат: AVI
Видео: XviD, 720x304 (2.35:1), 25.000 fps, 2137 kbps
Аудио: русский, оригинал, AC3 2.0, 48 kHz, 192 kbps

Код:

Формат : AVI
Формат/Информация : Audio Video Interleave
Размер файла : 1,46 Гбайт
Продолжительность : 1 ч. 29 м.
Общий поток : 2339 Кбит/сек
Программа кодирования : VirtualDubMod 1.5.10.3 | www.virtualdub-fr.org || (build 2550/release)
Библиотека кодирования : VirtualDubMod build 2550/release

Видео
Идентификатор : 0
Формат : MPEG-4 Visual
Профиль формата : Advanced Simple@L5
Параметр BVOP формата : 1
Параметр QPel формата : Нет
Параметр GMC формата : Без точки перехода
Параметр матрицы формата : Default (H.263)
Идентификатор кодека : XVID
Идентификатор кодека/Подсказка : XviD
Продолжительность : 1 ч. 29 м.
Битрейт : 2137 Кбит/сек
Ширина : 720 пикселей
Высота : 304 пикселя
Соотношение сторон : 2,35:1
Частота кадров : 25,000 кадров/сек
Цветовое пространство : YUV
Субдискретизация насыщенности : 4:2:0
Битовая глубина : 8 бит
Тип развёртки : Прогрессивная
Метод сжатия : С потерями
Бит/(Пиксели*Кадры) : 0.391
Размер потока : 1,33 Гбайт (91%)
Библиотека кодирования : XviD 73

Аудио
Идентификатор : 1
Формат : AC-3
Формат/Информация : Audio Coding 3
Расширение режима : CM (complete main)
Параметр Endianness формата : Big
Идентификатор кодека : 2000
Продолжительность : 1 ч. 29 м.
Вид битрейта : Постоянный
Битрейт : 192 Кбит/сек
Каналы : 2 канала
Расположение каналов : Front: L R
Частота : 48,0 КГц
Частота кадров : 31,250 кадров/сек (1536 spf)
Метод сжатия : С потерями
Размер потока : 123 Мбайт (8%)
Выравнивание : Разделение по промежуткам
Продолжительность промежутка : 40 мс. (1,00 видеокадр)
Время предзагрузки промежутка : 500 мс.
Релиз:

picpicpicpicpic
Для увеличения картинки щелкните мышкой по превью

Этот торрент недоступен для скачивания без регистрации, однако доступен по публичной magnet-ссылке (источники с публичных трекеров). Перед использованием ссылки прочтите, пожалуйста Пользовательское соглашение, а также как можно дольше оставайтесь на раздаче! Для того, чтобы скачать сам торрент-файл (который видит больше источников), а также для того, чтобы поблагодарить релизера, вам необходимо зарегистрироваться. Если регистрироваться лень - вы можете также попробовать скачать релиз по нашим партнерским ссылкам ниже.

[underverse.su].t69817.torrent
Трекер: Зарегистрирован   [ 06.09.2016 10:16 ]  

Статус: проверено (by makkol at 07.09.2016 23:39)
Поблагодарили: пока никто не поблагодарил...
Тип торрента: публичный - доступные источники с открытых трекеров: 
Размер: 1,46 GB (занимает 0,33 DVDR, для записи нужно 1 болванка DVDR/RW)
 
 
Похожие темы
Форум Тема Автор Торрент Отв. Посл. сооб.
# Зарубежное кино [DVDRip, Low-Res HDRip, и т.д.] Невероятное путешествие мистера Спивета / The Young and Prodigious T.S. Spivet (Жан-Пьер Жене / Jean-Pierre Jeunet) [2013 г., драма, приключения, семейный, BDRip-AVC] Dub (НТВ+) + Original (Eng) +... 90ytr90
10 | 0

0 | 322

11

01.01.2015 17:23

T Зарубежное кино [DVDRip, Low-Res HDRip, и т.д.] Невероятное путешествие мистера Спивета / The Young and Prodigious T.S. Spivet (Жан-Пьер Жене) [2013 г., драма, приключения, семейный, HDRip] Dub (НТВ+) Паукан
1 | 0

0 | 539

12

20.01.2015 16:30

T Зарубежное кино [DVDRip, Low-Res HDRip, и т.д.] Невероятное путешествие мистера Спивета / The Young and Prodigious T.S. Spivet (Жан-Пьер Жене / Jean-Pierre Jeunet) [2013 г., драма, приключения, семейный, HDRip] Dub (iTunes) 90ytr90
8 | 0

0 | 241

13

03.02.2015 05:38

T Зарубежное кино [DVDRip, Low-Res HDRip, и т.д.] Невероятное путешествие мистера Спивета / The Young and Prodigious T.S. Spivet (Жан-Пьер Жене / Jean-Pierre Jeunet) [2013 г., драма, приключения, семейный, HDRip] Dub (iTunes) + Original (Fre) 90ytr90
4 | 0

0 | 282

2

03.02.2015 06:12

T Зарубежное кино [HDDVDRip / BDRip / WEB-DL / HDTV 1080/720р] Невероятное путешествие мистера Спивета / The Young and Prodigious T.S. Spivet (Жан-Пьер Жене / Jean-Pierre Jeunet) [2013 г., драма, приключения, семейный, BDRip 720p] Dub (чистый звук) + Original... 90ytr90
3 | 0

0 | 375

11

01.01.2015 17:33

T Зарубежное кино [HDDVDRip / BDRip / WEB-DL / HDTV 1080/720р] Невероятное путешествие мистера Спивета / The Young and Prodigious T.S. Spivet (Жан-Пьер Жене / Jean-Pierre Jeunet) [2013 г., драма, приключения, семейный, BDRip 1080p] Dub (чистый звук) + Original... 90ytr90
1 | 1

0 | 339

9

01.01.2015 17:43


Яндекс.Метрика powered by Sphinx


В Н И М А Н И Е
Сайт не распространяет и не хранит электронные версии произведений, а лишь бесплатно и без коммерческой выгоды (не требуя взамен платы,
SMS и т.д.) предоставляет доступ к создаваемому пользователями каталогу ссылок на торрент-файлы, которые содержат только списки хеш-сумм.
Убедительная просьба с жалобами обращаться напрямую к пользователю, разместившему торрент файл.

Вверх