Loading...
Error

Индия: Национальный парк Канха / India: Kanha National Park (Норберт Вандер) [2014 г., документальный, природа, флора, фауна, WEB-DLRip] VO

Статистика раздачи
Размер:  550 MB   |    Зарегистрирован:  3 месяца 3 дня   |    Скачан:  1 раз

Полного источника не было: 3 месяца 3 дня

Сидов:  0  |  0 KB/s  ]   Личеров:  0  |  0 KB/s  ]

* - сиды/пиры с внешних источников

   
 
Автор Сообщение

ARI71 Пол:Муж

05-Сен-2016 06:05

Индия: Национальный парк Канха / India: Kanha National Park


Год выпуска: 2014
Жанр: документальный, природа, флора, фауна
Страна: Германия New KSM
Режиссер: Норберт Вандер
Сюжет фильма:
Зрелищный и красочный документальный фильм немецкого режиссера Норберта Вандера (серия передач «Всемирное природное наследие»), рассказывающий о загадочной стране контрастов – Индии. Индия – одна из самых густонаселенных стран в мире, которая ежедневно сталкивается с серьезными и важными государственными задачами. С одной стороны, необходимо поднимать экономику страны, бороться с бедностью и преступностью, но с другой – нельзя забывать о сохранении уникальнейшего природного наследия, которым эта страна обладает. Почти в самом сердце Индии раскинулся на 1000 км² прекрасный заповедник Канха, в котором обитают самые редкие и исчезающие виды животных, в том числе и бенгальский тигр. Официально являясь самой большой кошкой на земле, он, тем не менее, совершенно беззащитен перед человеком, который продолжает на него безжалостную охоту. Что же сможет спасти тигра от вымирания?
Качество видео: WEB-DLRip

Продолжительность: 00:49:47
Формат: AVI
Видео: XviD, 720x400, 1344 kbps
Аудио: русский, одноголосый (профессиональный), AC3 2.0, 192.00 kbps

Код:

Общее
Полное имя : D:\National.park.kanha.2014.XviD.2014.WEB-DLRip.Generalfilm.avi
Формат : AVI
Формат/Информация : Audio Video Interleave
Размер файла : 550 Мбайт
Продолжительность : 49 м.
Общий поток : 1545 Кбит/сек
Программа кодирования : VirtualDubMod 1.5.10.3 | www.virtualdub-fr.org || (build 2550/release)
Библиотека кодирования : VirtualDubMod build 2550/release

Видео
Идентификатор : 0
Формат : MPEG-4 Visual
Профиль формата : Advanced Simple@L5
Параметр BVOP формата : 1
Параметр QPel формата : Нет
Параметр GMC формата : Без точки перехода
Параметр матрицы формата : Default (MPEG)
Идентификатор кодека : XVID
Идентификатор кодека/Подсказка : XviD
Продолжительность : 49 м.
Битрейт : 1344 Кбит/сек
Ширина : 720 пикселей
Высота : 400 пикселей
Соотношение сторон : 16:9
Частота кадров : 25,000 кадров/сек
Цветовое пространство : YUV
Субдискретизация насыщенности : 4:2:0
Битовая глубина : 8 бит
Тип развёртки : Прогрессивная
Метод сжатия : С потерями
Бит/(Пиксели*Кадры) : 0.187
Размер потока : 479 Мбайт (87%)
Библиотека кодирования : XviD 64

Аудио
Идентификатор : 1
Формат : AC-3
Формат/Информация : Audio Coding 3
Расширение режима : CM (complete main)
Параметр Endianness формата : Big
Идентификатор кодека : 2000
Продолжительность : 49 м.
Вид битрейта : Постоянный
Битрейт : 192 Кбит/сек
Каналы : 2 канала
Расположение каналов : Front: L R
Частота : 48,0 КГц
Частота кадров : 31,250 кадров/сек (1536 spf)
Метод сжатия : С потерями
Размер потока : 68,4 Мбайт (12%)
Выравнивание : Разделение по промежуткам
Продолжительность промежутка : 40 мс. (1,00 видеокадр)
Время предзагрузки промежутка : 500 мс.
picpicpicpicpic
Для увеличения картинки щелкните мышкой по превью

Этот торрент недоступен для скачивания без регистрации, однако доступен по публичной magnet-ссылке (источники с публичных трекеров). Перед использованием ссылки прочтите, пожалуйста Пользовательское соглашение, а также как можно дольше оставайтесь на раздаче! Для того, чтобы скачать сам торрент-файл (который видит больше источников), а также для того, чтобы поблагодарить релизера, вам необходимо зарегистрироваться. Если регистрироваться лень - вы можете также попробовать скачать релиз по нашим партнерским ссылкам ниже.

[underverse.su].t69775.torrent
Трекер: Зарегистрирован   [ 05.09.2016 06:05 ]  

Статус: проверено (by makkol at 05.09.2016 10:46)
Поблагодарили: пока никто не поблагодарил...
Тип торрента: публичный - доступные источники с открытых трекеров: 
Размер: 550 MB (занимает 0,12 DVDR, для записи нужно 1 болванка DVDR/RW)
 
 

Яндекс.Метрика powered by Sphinx


В Н И М А Н И Е
Сайт не распространяет и не хранит электронные версии произведений, а лишь бесплатно и без коммерческой выгоды (не требуя взамен платы,
SMS и т.д.) предоставляет доступ к создаваемому пользователями каталогу ссылок на торрент-файлы, которые содержат только списки хеш-сумм.
Убедительная просьба с жалобами обращаться напрямую к пользователю, разместившему торрент файл.

Вверх