Loading...
Error

Такой же предатель, как и мы / Our Kind of Traitor (Сюзанна Уайт) [2016 г., триллер, HDRip] MVO (Line)

Статистика раздачи
Размер:  1,46 GB   |    Зарегистрирован:  3 месяца 4 дня   |    Скачан:  9 раз

Полного источника не было: 1 месяц 12 дней

Сидов:  0  |  0 KB/s  ]   Личеров:  0  |  0 KB/s  ]

* - сиды/пиры с внешних источников

   
 
Автор Сообщение

makkol Пол:Муж

04-Сен-2016 21:53

Такой же предатель, как и мы / Our Kind of Traitor


Год выпуска: 2016
Жанр: триллер
Производство: Великобритания , Франция [Amazon Prime Instant Video, Anton Capital Entertainment (ACE), Film4]
Режиссер: Сюзанна Уайт
В ролях: Карлос Акоста, Радивойе Буквич, Стеллан Скарсгард, Мария Фомина, Доля Гавански, Григорий Добрыгин, Велибор Топич, Павел Жайда, Эван МакГрегор, Наоми Харрис
Сюжет фильма:
Молодая английская пара, отдыхая в Марокко, заводит знакомство с русским олигархом, отмывающим деньги для преступных группировок, чьи лидеры вот-вот спишут его со счетов. Чтобы спасти себя и семью, он предлагает разведке Великобритании море ценных сведений в обмен на защиту и покровительство. Его последняя отчаянная надежда — на «английских джентльменов», которые всегда «играют честно»...

  • Мировая премьера: 1 мая 2016
  • Российская премьера: 12 мая 2016


Качество видео: HDRip

Продолжительность: 01:47:27
Формат: AVI
Видео: XviD, 720x304 (2.35:1), 24.000 fps, 1568 kbps
Аудио: русский, профессиональный многоголосый закадровый (официальный звук), AC3 2.0, 48 kHz, 384 kbps

Код:

Format                      : AVI
Format/Info                 : Audio Video Interleave
File size                   : 1.46 GiB
Duration                    : 1 h 46 min
Overall bit rate            : 1 961 kb/s
Writing application         : VirtualDubMod 1.5.10.2 (build 2540/release)
Writing library             : VirtualDubMod build 2540/release

Video
ID                          : 0
Format                      : MPEG-4 Visual
Format profile              : Advanced Simple@L5
Format settings, BVOP       : 2
Format settings, QPel       : No
Format settings, GMC        : No warppoints
Format settings, Matrix     : Custom
Codec ID                    : XVID
Codec ID/Hint               : XviD
Duration                    : 1 h 46 min
Bit rate                    : 1 568 kb/s
Width                       : 720 pixels
Height                      : 304 pixels
Display aspect ratio        : 2.35:1
Frame rate                  : 24.000 FPS
Color space                 : YUV
Chroma subsampling          : 4:2:0
Bit depth                   : 8 bits
Scan type                   : Progressive
Compression mode            : Lossy
Bits/(Pixel*Frame)          : 0.298
Stream size                 : 1.17 GiB (80%)
Writing library             : XviD 1.2.1 (UTC 2008-12-04)

Audio
ID                          : 1
Format                      : AC-3
Format/Info                 : Audio Coding 3
Mode extension              : CM (complete main)
Format settings, Endianness : Big
Codec ID                    : 2000
Duration                    : 1 h 46 min
Bit rate mode               : Constant
Bit rate                    : 384 kb/s
Channel(s)                  : 2 channels
Channel positions           : Front: L R
Sampling rate               : 48.0 kHz
Frame rate                  : 31.250 FPS (1536 spf)
Compression mode            : Lossy
Stream size                 : 292 MiB (20%)
Alignment                   : Split accross interleaves
Interleave, duration        : 42  ms (1.00 video frame)
Interleave, preload duratio : 500  ms
Присутствует реклама


picpicpicpicpic
Для увеличения картинки щелкните мышкой по превью

Этот торрент недоступен для скачивания без регистрации, однако доступен по публичной magnet-ссылке (источники с публичных трекеров). Перед использованием ссылки прочтите, пожалуйста Пользовательское соглашение, а также как можно дольше оставайтесь на раздаче! Для того, чтобы скачать сам торрент-файл (который видит больше источников), а также для того, чтобы поблагодарить релизера, вам необходимо зарегистрироваться. Если регистрироваться лень - вы можете также попробовать скачать релиз по нашим партнерским ссылкам ниже.

[underverse.su].t69766.torrent
Трекер: Зарегистрирован   [ 04.09.2016 21:53 ]  

Статус: T временная (by makkol at 07.09.2016 23:32)
Поблагодарили: 1 человек
Тип торрента: публичный - доступные источники с открытых трекеров: 
Размер: 1,46 GB (занимает 1/3 DVDR, для записи нужно 1 болванка DVDR/RW)
 
 
Похожие темы
Форум Тема Автор Торрент Отв. Посл. сооб.
T Зарубежное кино [DVDRip, Low-Res HDRip, и т.д.] Такой же предатель, как и мы / Our Kind of Traitor (Сюзанна Уайт / Susanna White) [2016 г., триллер, HDRip] MVO (iTunes) + hardsub (Eng) 90ytr90
27 | 0

0 | 340

4

19.11.2016 15:22

T Зарубежное кино [DVDRip, Low-Res HDRip, и т.д.] Такой же предатель, как и мы / Our Kind of Traitor (Сюзанна Уайт / Susanna White) [2016 г., триллер, BDRip-AVC] MVO (iTunes) 90ytr90
16 | 2

0 | 189

8

22.10.2016 07:08

T Зарубежное кино [DVDRip, Low-Res HDRip, и т.д.] Такой же предатель, как и мы / Our Kind of Traitor (Сюзанна Уайт) [2016 г., триллер, HDRip] MVO (iTunes) makkol
215 | 4

0 | 602

30

15.09.2016 12:51

T Зарубежное кино [DVDRip, Low-Res HDRip, и т.д.] Такой же предатель, как и мы / Our Kind of Traitor (Сюзанна Уайт) [2016 г., триллер, WEB-DLRip] MVO (звук с TS) makkol
67 | 0

0 | 601

21

28.08.2016 21:58

T Зарубежное кино [HDDVDRip / BDRip / WEB-DL / HDTV 1080/720р] Такой же предатель, как и мы / Our Kind of Traitor (Сюзанна Уайт) [2016 г., триллер, BDRip 1080p] MVO (iTunes) + Original (Eng) + Sub (Eng) 90ytr90
20 | 1

0 | 329

3

19.11.2016 15:26

T Зарубежное кино [HDDVDRip / BDRip / WEB-DL / HDTV 1080/720р] Такой же предатель, как и мы / Our Kind of Traitor (Сюзанна Уайт) [2016 г., триллер, BDRip 1080p] MVO (iTunes) + Original makkol
12 | 0

0 | 519

4

15.09.2016 13:07

T Зарубежное кино [HDDVDRip / BDRip / WEB-DL / HDTV 1080/720р] Такой же предатель, как и мы / Our Kind of Traitor (Сюзанна Уайт) [2016 г., триллер, BDRip 720p] MVO (iTunes) + Original makkol
78 | 1

0 | 511

4

15.09.2016 12:59

T Зарубежное кино [HDDVDRip / BDRip / WEB-DL / HDTV 1080/720р] Такой же предатель, как и мы / Our Kind of Traitor (Сюзанна Уайт) [2016 г., триллер, BDRip 720p] MVO (Line) makkol
1 | 0

0 | 429

8

04.09.2016 22:01

T Зарубежное кино [HDDVDRip / BDRip / WEB-DL / HDTV 1080/720р] Такой же предатель, как и мы / Our Kind of Traitor (Сюзанна Уайт) [2016 г., триллер, BDRip 1080p] MVO (Line) makkol
2 | 0

0 | 452

8

04.09.2016 22:07


Яндекс.Метрика powered by Sphinx


В Н И М А Н И Е
Сайт не распространяет и не хранит электронные версии произведений, а лишь бесплатно и без коммерческой выгоды (не требуя взамен платы,
SMS и т.д.) предоставляет доступ к создаваемому пользователями каталогу ссылок на торрент-файлы, которые содержат только списки хеш-сумм.
Убедительная просьба с жалобами обращаться напрямую к пользователю, разместившему торрент файл.

Вверх