Loading...
Error

Байкальские каникулы (Анастасия Немчинова, Ольга Бутакова, Артем Бурлов) [2015 г., комедия, семейный, приключения, WEB-DLRip]

Статистика раздачи
Размер:  1,45 GB   |    Зарегистрирован:  3 месяца 4 дня   |    Скачан:  13 раз

Полного источника не было: 15 дней

Сидов:  0  |  0 KB/s  ]   Личеров:  0  |  0 KB/s  ]

* - сиды/пиры с внешних источников

   
 
Автор Сообщение

makkol Пол:Муж

04-Сен-2016 15:33

Байкальские каникулы
«Чудеса не знают времени»


Год выпуска: 2015
Жанр: комедия, семейный, приключения
Производство: Россия [Asia Films]
Режиссер: Анастасия Немчинова, Ольга Бутакова, Артем Бурлов
В ролях: Иван Кузнецов, Александр Кыштымов, Виктор Тетерин, Лена Усольцева, Сергей Ершов, Амаду Мамадаков, Чимит Жамьянов, Виктор Малышенко, Наталия Мельникова, Анастасия Гусева, Анна Щербакова, Александр Михалев
Сюжет фильма:
А верите ли вы в чудеса? Поверьте - им абсолютно не важно ваше мнение о них, они просто случаются и не имеет значения, где и в каком возрасте они происходят, а главное когда.
Обычный мальчик по имени Коля Голиков впервые в жизни отправляется в детский лагерь, где никак не может найти общий язык со сверстниками, ведь лучшие друзья Коли - это ребята из социальных сетей и единомышленники из онлайн игр. Коля желает изо всех сил оказаться там, где его по-настоящему будут ценить и он сможет оказаться своим. Но так должно было совпасть, что в этом же месте, точно в такой же день, в тот же час, ту же минуту и даже секунду, но с разницей в 30 лет - исключенный из рядов пионерии Саша Филлипов, искренне и всем сердцем пожелал тоже самое.
Настоящая дружба, песни у костра, а главное первая и по-детски чистая и наивная любовь...

  • Мировая премьера: 11 февраля 2016


Качество видео: WEB-DLRip

Продолжительность: 01:24:18
Формат: AVI
Видео: XviD, 720x304 (2.35:1), 24.000 fps, 2195 kbps
Аудио: русский, оригинал, AC3 2.0, 44.1 kHz, 256 kbps

Код:

Формат                                   : AVI
Формат/Информация                        : Audio Video Interleave
Профиль формата                          : OpenDML
Размер файла                             : 1,45 Гбайт
Продолжительность                        : 1 ч. 24 м.
Общий поток                              : 2458 Кбит/сек
Программа кодирования                    : XviD4PSP 6.0 / 54.29.105

Видео
Идентификатор                            : 0
Формат                                   : xvid
Идентификатор кодека                     : xvid
Продолжительность                        : 1 ч. 24 м.
Битрейт                                  : 2191 Кбит/сек
Ширина                                   : 720 пикселей
Высота                                   : 304 пикселя
Соотношение сторон                       : 2,35:1
Частота кадров                           : 24,000 кадра/сек
Бит/(Пиксели*Кадры)                      : 0.417
Размер потока                            : 1,29 Гбайт (89%)

Аудио
Идентификатор                            : 1
Формат                                   : AC-3
Формат/Информация                        : Audio Coding 3
Расширение режима                        : CM (complete main)
Параметр Endianness формата              : Big
Идентификатор кодека                     : 2000
Продолжительность                        : 1 ч. 24 м.
Вид битрейта                             : Постоянный
Битрейт                                  : 256 Кбит/сек
Каналы                                   : 2 канала
Расположение каналов                     : Front: L R
Частота                                  : 44,1 КГц
Битовая глубина                          : 16 бит
Метод сжатия                             : С потерями
Размер потока                            : 154 Мбайт (10%)
Выравнивание                             : Соединение по промежуткам
Продолжительность промежутка             : 35  мс. (0,84 видеокадр)
picpicpicpicpic
Для увеличения картинки щелкните мышкой по превью

Этот торрент недоступен для скачивания без регистрации, однако доступен по публичной magnet-ссылке (источники с публичных трекеров). Перед использованием ссылки прочтите, пожалуйста Пользовательское соглашение, а также как можно дольше оставайтесь на раздаче! Для того, чтобы скачать сам торрент-файл (который видит больше источников), а также для того, чтобы поблагодарить релизера, вам необходимо зарегистрироваться. Если регистрироваться лень - вы можете также попробовать скачать релиз по нашим партнерским ссылкам ниже.

[underverse.su].t69758.torrent
Трекер: Зарегистрирован   [ 04.09.2016 15:33 ]  

Статус: проверено (by makkol at 07.09.2016 23:30)
Поблагодарили: пока никто не поблагодарил...
Тип торрента: публичный - доступные источники с открытых трекеров: 
Размер: 1,45 GB (занимает 1/3 DVDR, для записи нужно 1 болванка DVDR/RW)
 
 

Яндекс.Метрика powered by Sphinx


В Н И М А Н И Е
Сайт не распространяет и не хранит электронные версии произведений, а лишь бесплатно и без коммерческой выгоды (не требуя взамен платы,
SMS и т.д.) предоставляет доступ к создаваемому пользователями каталогу ссылок на торрент-файлы, которые содержат только списки хеш-сумм.
Убедительная просьба с жалобами обращаться напрямую к пользователю, разместившему торрент файл.

Вверх