Loading...
Error

Назойливая / The Meddler (Лорин Скафария) [2015 г., драма, мелодрама, комедия, WEB-DLRip] MVO

Статистика раздачи
Размер:  1,37 GB   |    Зарегистрирован:  2 месяца 29 дней   |    Скачан:  7 раз

Полного источника не было: 1 месяц 29 дней

Сидов:  0  |  0 KB/s  ]   Личеров:  0  |  0 KB/s  ]

* - сиды/пиры с внешних источников

   
 
Автор Сообщение

makkol Пол:Муж

04-Сен-2016 15:11

Назойливая / The Meddler


Год выпуска: 2015
Жанр: драма, мелодрама, комедия
Производство: США [Anonymous Content, Stage 6 Films]
Режиссер: Лорин Скафария
В ролях: Сьюзен Сарандон, Роуз Бирн, Дж.К. Симмонс, Джеррод Кармайкл, Сесили Стронг, Люси Панч, Майкл МакКин, Джейсон Риттер, Сара Бэйкер, Кейси Уилсон
Сюжет фильма:
Пожилая вдова из Нью-Йорка следует за своей дочерью в Лос-Анджелес в надежде начать новую жизнь после смерти мужа.

  • Мировая премьера: 14 сентября 2015


Качество видео: WEB-DLRip

Продолжительность: 01:43:42
Формат: AVI
Видео: XviD, 720x304 (2.35:1), 23.976 fps, 1686 kbps
Аудио: русский, профессиональный многоголосый закадровый (официальный звук), AC3 2.0, 48 kHz, 192 kbps

Код:

Format                      : AVI
Format/Info                 : Audio Video Interleave
File size                   : 1.37 GiB
Duration                    : 1 h 43 min
Overall bit rate            : 1 887 kb/s
Writing application         : VirtualDubMod 1.5.10.2 (build 2540/release)
Writing library             : VirtualDubMod build 2540/release

Video
ID                          : 0
Format                      : MPEG-4 Visual
Format profile              : Advanced Simple@L5
Format settings, BVOP       : 2
Format settings, QPel       : No
Format settings, GMC        : No warppoints
Format settings, Matrix     : Custom
Codec ID                    : XVID
Codec ID/Hint               : XviD
Duration                    : 1 h 43 min
Bit rate                    : 1 686 kb/s
Width                       : 720 pixels
Height                      : 304 pixels
Display aspect ratio        : 2.35:1
Frame rate                  : 23.976 (24000/1001) FPS
Color space                 : YUV
Chroma subsampling          : 4:2:0
Bit depth                   : 8 bits
Scan type                   : Progressive
Compression mode            : Lossy
Bits/(Pixel*Frame)          : 0.321
Stream size                 : 1.22 GiB (89%)
Writing library             : XviD 1.2.1 (UTC 2008-12-04)

Audio
ID                          : 1
Format                      : AC-3
Format/Info                 : Audio Coding 3
Mode extension              : CM (complete main)
Format settings, Endianness : Big
Codec ID                    : 2000
Duration                    : 1 h 43 min
Bit rate mode               : Constant
Bit rate                    : 192 kb/s
Channel(s)                  : 2 channels
Channel positions           : Front: L R
Sampling rate               : 48.0 kHz
Frame rate                  : 31.250 FPS (1536 spf)
Compression mode            : Lossy
Stream size                 : 142 MiB (10%)
Alignment                   : Split accross interleaves
Interleave, duration        : 42  ms (1.00 video frame)
Interleave, preload duratio : 500  ms
Присутствует реклама


picpicpicpicpic
Для увеличения картинки щелкните мышкой по превью

Этот торрент недоступен для скачивания без регистрации, однако доступен по публичной magnet-ссылке (источники с публичных трекеров). Перед использованием ссылки прочтите, пожалуйста Пользовательское соглашение, а также как можно дольше оставайтесь на раздаче! Для того, чтобы скачать сам торрент-файл (который видит больше источников), а также для того, чтобы поблагодарить релизера, вам необходимо зарегистрироваться. Если регистрироваться лень - вы можете также попробовать скачать релиз по нашим партнерским ссылкам ниже.

[underverse.su].t69756.torrent
Трекер: Зарегистрирован   [ 04.09.2016 15:11 ]  

Статус: поглощено (by makkol at 20.10.2016 13:21)
Поблагодарили: пока никто не поблагодарил...
Тип торрента: публичный - доступные источники с открытых трекеров: 
Размер: 1,37 GB (занимает 0,31 DVDR, для записи нужно 1 болванка DVDR/RW)
 
 
Похожие темы
Форум Тема Автор Торрент Отв. Посл. сооб.
Зарубежное кино [DVDRip, Low-Res HDRip, и т.д.] Назойливая / Мама-прилипала / The Meddler (Лорин Скафария / Lorene Scafaria) [2015 г., драма, мелодрама, комедия, BDRip-AVC] MVO + Original (Eng) + Sub (Eng) 90ytr90
29 | 6

0 | 196

1

11.11.2016 08:22

Зарубежное кино [DVDRip, Low-Res HDRip, и т.д.] Назойливая / Мама-прилипала / The Meddler (Лорин Скафария / Lorene Scafaria) [2015 г., драма, мелодрама, комедия, BDRip] MVO + Original (Eng) + Sub (Eng) 90ytr90
16 | 1

0 | 195

2

05.11.2016 11:58

Зарубежное кино [DVDRip, Low-Res HDRip, и т.д.] Назойливая / Мама-прилипала / The Meddler (Лорин Скафария / Lorene Scafaria) [2015 г., драма, мелодрама, комедия, BDRip-AVC] MVO 90ytr90
15 | 0

0 | 168

1

05.11.2016 11:54

Зарубежное кино [DVDRip, Low-Res HDRip, и т.д.] Назойливая / Мама-прилипала / The Meddler (Лорин Скафария / Lorene Scafaria) [2015 г., драма, мелодрама, комедия, HDRip] MVO 90ytr90
42 | 0

0 | 373

5

20.10.2016 16:15

Зарубежное кино [DVDRip, Low-Res HDRip, и т.д.] Назойливая / Мама-прилипала / The Meddler (Лорин Скафария) [2015 г., драма, мелодрама, комедия, HDRip] MVO makkol
99 | 5

0 | 210

3

20.10.2016 12:54

Зарубежное кино [HDDVDRip / BDRip / WEB-DL / HDTV 1080/720р] Назойливая / Мама-прилипала / The Meddler (Лорин Скафария) [2015 г., драма, мелодрама, комедия, BDRip 1080p] MVO + Original makkol
26 | 0

0 | 256

3

20.10.2016 13:19

Зарубежное кино [HDDVDRip / BDRip / WEB-DL / HDTV 1080/720р] Назойливая / Мама-прилипала / The Meddler (Лорин Скафария) [2015 г., драма, мелодрама, комедия, BDRip 720p] MVO + Original makkol
25 | 1

0 | 196

2

20.10.2016 13:09

20-Окт-2016 13:20

Топик был перенесен из форума Зарубежное кино [DVDRip, Low-Res HDRip, и т.д.] в форум Для поглощенных раздач

Причина переноса: http://underverse.me/viewtopic.php?t=69753
makkol
 

Яндекс.Метрика powered by Sphinx


В Н И М А Н И Е
Сайт не распространяет и не хранит электронные версии произведений, а лишь бесплатно и без коммерческой выгоды (не требуя взамен платы,
SMS и т.д.) предоставляет доступ к создаваемому пользователями каталогу ссылок на торрент-файлы, которые содержат только списки хеш-сумм.
Убедительная просьба с жалобами обращаться напрямую к пользователю, разместившему торрент файл.

Вверх