Loading...
Error

Солнечное копьё / Sloneczna wlocznia / Die Sonnenlanze (1-13 из 13) (Ежи Лукашевич) [2001 г., фантастика, семейный, комедия, DVDRip] VO

Статистика раздачи
Размер:  4,86 GB   |    Зарегистрирован:  3 месяца 1 день   |    Скачан:  2 раза

Полного источника не было: 9 часов

Сидов:  0  |  0 KB/s  ]   Личеров:  0  |  0 KB/s  ]

* - сиды/пиры с внешних источников

   
 
Автор Сообщение

makkol Пол:Муж

04-Сен-2016 14:35

Солнечное копьё / Słoneczna włócznia / Die Sonnenlanze


Год выпуска: 2001
Жанр: фантастика, семейный, комедия
Производство: Польша , Германия [Max-Film, mdF]
Режиссер: Ежи Лукашевич
В ролях: Марцин Коберский, Себастьян Грек, Анна Новак, Кжиштоф Янчак, Мацей Лагодзински, Марта Боровска, Гржегорц Руда, Гудрун Окрас, Ежи Гудейко, Рейнер Хейз
Сюжет фильма:
Космическая энергия, спрятанная в наконечнике Солнечного Копья, найденного в Андах, круто меняет жизнь 12-летнего Макса. Он теперь в совершенстве владеет телекинезом и стал вундеркиндом. Непросто складываются отношения в школе, где ему и его «дикой» подружке Матильде противостоит завистливый Артур с компанией. К тому же за Копьем охотится пришелец Зак…

  • Мировая премьера: 14 февраля 2001


Качество видео: DVDRip

Продолжительность: 13 x ~00:26:00
Формат: AVI
Видео: DivX, 704x438 (16:10), 25.000 fps, ~1800 kbps
Аудио: русский, любительский одноголосый закадровый, AC3 2.0, 48 kHz, 192 kbps
1. Tajemnicze odkrycie - Таинственная находка
2. Artur - Артур
3. Magiczna moc - Магическая сила
4. Fenomen - Феномен
5. Tajemniczy slad - Таиственный след
6. Dom Orchidei - Дом Орхидеи
7. Niezwykly Gosc - Загадочный гость
8. Obcy na planecie Terra - Чужой на планете Терра
9. Matylda - Матильда
10. Trop - Cлед
11. Ostatnie starcie - Последняя схватка
12. Powrót do Bramy Słońca - Возвращение к Вратам Солнца
13. Najważniejszy mecz - Самый важный матч

Код:

Формат                                   : AVI
Формат/Информация                        : Audio Video Interleave
Размер файла                             : 383 Мбайт
Продолжительность                        : 26 м.
Общий поток                              : 1999 Кбит/сек
Программа кодирования                    : VirtualDubModRus 1.5.10.2 (build 2542/release)
Библиотека кодирования                   : VirtualDubMod build 2542/release

Видео
Идентификатор                            : 0
Формат                                   : MPEG-4 Visual
Параметр BVOP формата                    : 1
Параметр QPel формата                    : Нет
Параметр GMC формата                     : Без точки перехода
Параметр матрицы формата                 : Default (H.263)
Режим смешивания                         : Сжатый битовый поток
Идентификатор кодека                     : DX50
Идентификатор кодека/Подсказка           : DivX 5
Продолжительность                        : 26 м.
Битрейт                                  : 1797 Кбит/сек
Ширина                                   : 704 пикселя
Высота                                   : 438 пикселей
Соотношение сторон                       : 16:10
Частота кадров                           : 25,000 кадров/сек
Цветовое пространство                    : YUV
Субдискретизация насыщенности            : 4:2:0
Битовая глубина                          : 8 бит
Тип развёртки                            : Прогрессивная
Метод сжатия                             : С потерями
Бит/(Пиксели*Кадры)                      : 0.233
Размер потока                            : 344 Мбайт (90%)
Библиотека кодирования                   : DivX 6.0.0 (UTC 2005-06-15)

Аудио
Идентификатор                            : 1
Формат                                   : AC-3
Формат/Информация                        : Audio Coding 3
Расширение режима                        : CM (complete main)
Параметр Endianness формата              : Big
Идентификатор кодека                     : 2000
Продолжительность                        : 26 м.
Вид битрейта                             : Постоянный
Битрейт                                  : 192 Кбит/сек
Каналы                                   : 2 канала
Расположение каналов                     : Front: L R
Частота                                  : 48,0 КГц
Метод сжатия                             : С потерями
Размер потока                            : 36,8 Мбайт (10%)
Выравнивание                             : Разделение по промежуткам
Продолжительность промежутка             : 40  мс. (1,00 видеокадр)
Время предзагрузки промежутка            : 500  мс.
Перевод: sasha20072007
Озвучивание: Семен Ващенко
Релиз от:
picpicpicpicpic
Для увеличения картинки щелкните мышкой по превью

Этот торрент недоступен для скачивания без регистрации, однако доступен по публичной magnet-ссылке (источники с публичных трекеров). Перед использованием ссылки прочтите, пожалуйста Пользовательское соглашение, а также как можно дольше оставайтесь на раздаче! Для того, чтобы скачать сам торрент-файл (который видит больше источников), а также для того, чтобы поблагодарить релизера, вам необходимо зарегистрироваться. Если регистрироваться лень - вы можете также попробовать скачать релиз по нашим партнерским ссылкам ниже.

[underverse.su].t69755.torrent
Трекер: Зарегистрирован   [ 04.09.2016 14:35 ]  

Статус: проверено (by Паукан at 05.09.2016 12:41)
Поблагодарили: пока никто не поблагодарил...
Тип торрента: публичный - доступные источники с открытых трекеров: 
Размер: 4,86 GB (занимает 1,11 DVDR, для записи нужно 2 болванки DVDR/RW)
 
 

Яндекс.Метрика powered by Sphinx


В Н И М А Н И Е
Сайт не распространяет и не хранит электронные версии произведений, а лишь бесплатно и без коммерческой выгоды (не требуя взамен платы,
SMS и т.д.) предоставляет доступ к создаваемому пользователями каталогу ссылок на торрент-файлы, которые содержат только списки хеш-сумм.
Убедительная просьба с жалобами обращаться напрямую к пользователю, разместившему торрент файл.

Вверх