Loading...
Error

Глаза пустыни Атакама / Eyes of the Atacama (Аннетт Шеурих, Клаус Шеурих) [2013 г., документальный, научно-познавательный, HDTVRip] DVO

Статистика раздачи
Размер:  708 MB   |    Зарегистрирован:  3 месяца 6 дней   |    Скачан:  4 раза

Полного источника не было: 10 дней

Сидов:  0  |  0 KB/s  ]   Личеров:  0  |  0 KB/s  ]

* - сиды/пиры с внешних источников

   
 
Автор Сообщение

ARI71 Пол:Муж

04-Сен-2016 08:35

Глаза пустыни Атакама / Eyes of the Atacama


Год выпуска: 2013
Жанр: документальный, научно-познавательный
Страна: Австрия Terra Mater Productions GmbH
Режиссер: Аннетт Шеурих, Клаус Шеурих
Сюжет фильма:
Расположенная на севере Чили пустыня Атакама - далекое, негостеприимное место, напоминающее инопланетный пейзаж из научно-фантастического фильма. Здесь находится самая большая наземная обсерватория. Новейшие телескопы вглядываются в далекие туманности космоса. Они следят за рождением и гибелью звезд и планет.
Качество видео: HDTVRip

Продолжительность: 00:52:01
Формат: AVI
Видео: XviD, 720x400, 1700 kbps
Аудио: русский, двухголосый (профессиональный), AC3 2.0, 192.00 kbps

Код:

Общее
Полное имя : D:\Eyes of the Atacama.HDTVRip.by RockeT [KazTorrentS].avi
Формат : AVI
Формат/Информация : Audio Video Interleave
Размер файла : 708 Мбайт
Продолжительность : 52 м.
Общий поток : 1902 Кбит/сек
Программа кодирования : VirtualDubMod 1.5.10.3 | www.virtualdub-fr.org || (build 2550/release)
Библиотека кодирования : VirtualDubMod build 2550/release

Видео
Идентификатор : 0
Формат : MPEG-4 Visual
Профиль формата : Advanced Simple@L5
Параметр BVOP формата : 1
Параметр QPel формата : Нет
Параметр GMC формата : Без точки перехода
Параметр матрицы формата : Default (MPEG)
Идентификатор кодека : XVID
Идентификатор кодека/Подсказка : XviD
Продолжительность : 52 м.
Битрейт : 1700 Кбит/сек
Ширина : 720 пикселей
Высота : 400 пикселей
Соотношение сторон : 16:9
Частота кадров : 25,000 кадров/сек
Цветовое пространство : YUV
Субдискретизация насыщенности : 4:2:0
Битовая глубина : 8 бит
Тип развёртки : Прогрессивная
Метод сжатия : С потерями
Бит/(Пиксели*Кадры) : 0.236
Размер потока : 633 Мбайт (89%)
Библиотека кодирования : XviD 1.2.1 (UTC 2008-12-04)

Аудио
Идентификатор : 1
Формат : AC-3
Формат/Информация : Audio Coding 3
Расширение режима : CM (complete main)
Параметр Endianness формата : Big
Идентификатор кодека : 2000
Продолжительность : 52 м.
Вид битрейта : Постоянный
Битрейт : 192 Кбит/сек
Каналы : 2 канала
Расположение каналов : Front: L R
Частота : 48,0 КГц
Частота кадров : 31,250 кадров/сек (1536 spf)
Метод сжатия : С потерями
Размер потока : 71,5 Мбайт (10%)
Выравнивание : Разделение по промежуткам
Продолжительность промежутка : 40 мс. (1,00 видеокадр)
Время предзагрузки промежутка : 500 мс.
Атакамская Большая Миллиметровая/субмиллиметровая Решетка (сокр.: ALMA. англ.: Atacama Large Millimeter/submillimeter Array) — международный проект, целью которого является постройка крупнейшей астрономической обсерватории в Чили. По завершению проекта комплекс будет состоять как минимум из 66 радиотелескопов 7 и 12 метров в диаметре каждый, объединенных в единый радиоинтерферометр. Телескоп предназначен для изучения процессов, происходивших на протяжении первых сотен миллионов лет после Большого Взрыва, когда формировалось первое поколение звезд. С его помощью планируется получить новые данные, объясняющие механизмы эволюции Вселенной.
Перевод осуществлен студией - СВ-Дубль
Автор рипа: RockeT
picpicpicpicpic
Для увеличения картинки щелкните мышкой по превью

Этот торрент недоступен для скачивания без регистрации, однако доступен по публичной magnet-ссылке (источники с публичных трекеров). Перед использованием ссылки прочтите, пожалуйста Пользовательское соглашение, а также как можно дольше оставайтесь на раздаче! Для того, чтобы скачать сам торрент-файл (который видит больше источников), а также для того, чтобы поблагодарить релизера, вам необходимо зарегистрироваться. Если регистрироваться лень - вы можете также попробовать скачать релиз по нашим партнерским ссылкам ниже.

[underverse.su].t69750.torrent
Трекер: Зарегистрирован   [ 04.09.2016 08:35 ]  

Статус: проверено (by makkol at 04.09.2016 10:09)
Поблагодарили: 1 человек
Тип торрента: публичный - доступные источники с открытых трекеров: 
Размер: 708 MB (занимает 0,16 DVDR, для записи нужно 1 болванка DVDR/RW)
 
 
Похожие темы
Форум Тема Автор Торрент Отв. Посл. сооб.
Научно-популярные фильмы Глаза пустыни Атакама / Eyes of the Atacama (Аннетт Шеурих, Клаус Шеурих) [2013 г., документальный, научно-познавательный, HDTVRip 720р] DVO ARI71
1 | 0

0 | 310

4

15.08.2016 15:35


Яндекс.Метрика powered by Sphinx


В Н И М А Н И Е
Сайт не распространяет и не хранит электронные версии произведений, а лишь бесплатно и без коммерческой выгоды (не требуя взамен платы,
SMS и т.д.) предоставляет доступ к создаваемому пользователями каталогу ссылок на торрент-файлы, которые содержат только списки хеш-сумм.
Убедительная просьба с жалобами обращаться напрямую к пользователю, разместившему торрент файл.

Вверх