Loading...
Error

Суслов. Серый кардинал. Исторический детектив (Виктор Беляков) [2003 г., документальный, история, хроника, TVRip]

Статистика раздачи
Размер:  598 MB   |    Зарегистрирован:  3 месяца 4 дня   |    Скачан:  2 раза

Полного источника не было: 3 месяца 3 дня

Сидов:  0  |  0 KB/s  ]   Личеров:  0  |  0 KB/s  ]

* - сиды/пиры с внешних источников

   
 
Автор Сообщение

ARI71 Пол:Муж

04-Сен-2016 07:35

Суслов. Серый кардинал. Исторический детектив


Год выпуска: 2003
Жанр: документальный, история, хроника
Страна: Россия "Пятый канал"
Режиссер: Виктор Беляков
В ролях: Рой Медведев - историк; Юрий Жуков - историк; Нина Молева - искусствовед
Сюжет фильма:
Известно, что Сталин в последние годы серьезно задумывался о том, кому передать власть, и решил ввести в состав ЦК несколько молодых и перспективных кандидатов.
Среди них был и Михаил Андреевич Суслов. Но даже в те годы не все решала воля вождя, и история распорядилась по-своему...

Михаи́л Андре́евич Су́слов (8 [21] ноября 1902, Саратовская губерния — 25 января 1982, Москва) — советский партийный и государственный деятель. Член Политбюро (Президиума) ЦК КПСС (1952—53, 1955—82), Секретарь ЦК КПСС (1947—82).
Пик карьеры М. А. Суслова пришёл на времена Брежнева, хотя влиятельным деятелем был уже при Сталине и Хрущёве. Являлся идеологом партии, и его иногда называли «серым кардиналом» советского строя и «Победоносцевым Советского Союза».
Качество видео: TVRip

Продолжительность: 00:43:12
Формат: AVI
Видео: DivX 5, 704x528, 1799 kbps
Аудио: русский, (оригинал), MP3 2.0, 128.00 kbps

Код:

Общее
Полное имя : D:\Suslov.Sery.Kardinal.TV-rip.by.mikloeff.avi
Формат : AVI
Формат/Информация : Audio Video Interleave
Размер файла : 598 Мбайт
Продолжительность : 43 м.
Общий поток : 1936 Кбит/сек
Библиотека кодирования : VirtualDub build 28292/release

Видео
Идентификатор : 0
Формат : MPEG-4 Visual
Параметр BVOP формата : Нет
Параметр QPel формата : Нет
Параметр GMC формата : Без точки перехода
Параметр матрицы формата : Default (H.263)
Идентификатор кодека : DX50
Идентификатор кодека/Подсказка : DivX 5
Продолжительность : 43 м.
Битрейт : 1799 Кбит/сек
Ширина : 704 пикселя
Высота : 528 пикселей
Соотношение сторон : 4:3
Частота кадров : 25,000 кадров/сек
Цветовое пространство : YUV
Субдискретизация насыщенности : 4:2:0
Битовая глубина : 8 бит
Тип развёртки : Прогрессивная
Метод сжатия : С потерями
Бит/(Пиксели*Кадры) : 0.194
Размер потока : 556 Мбайт (93%)
Библиотека кодирования : DivX 5.2.1 (WaffleDay) (UTC 2004-09-08)

Аудио
Идентификатор : 1
Формат : MPEG Audio
Версия формата : Version 1
Профиль формата : Layer 3
Режим : Joint stereo
Расширение режима : MS Stereo
Идентификатор кодека : 55
Идентификатор кодека/Подсказка : MP3
Продолжительность : 43 м.
Вид битрейта : Постоянный
Битрейт : 128 Кбит/сек
Каналы : 2 канала
Частота : 48,0 КГц
Метод сжатия : С потерями
Размер потока : 39,6 Мбайт (7%)
Выравнивание : Разделение по промежуткам
Продолжительность промежутка : 40 мс. (1,00 видеокадр)
Время предзагрузки промежутка : 500 мс.
Рип от: mikloeff
picpicpicpicpic
Для увеличения картинки щелкните мышкой по превью

Этот торрент недоступен для скачивания без регистрации, однако доступен по публичной magnet-ссылке (источники с публичных трекеров). Перед использованием ссылки прочтите, пожалуйста Пользовательское соглашение, а также как можно дольше оставайтесь на раздаче! Для того, чтобы скачать сам торрент-файл (который видит больше источников), а также для того, чтобы поблагодарить релизера, вам необходимо зарегистрироваться. Если регистрироваться лень - вы можете также попробовать скачать релиз по нашим партнерским ссылкам ниже.

[underverse.su].t69747.torrent
Трекер: Зарегистрирован   [ 04.09.2016 07:35 ]  

Статус: проверено (by makkol at 04.09.2016 10:08)
Поблагодарили: пока никто не поблагодарил...
Тип торрента: публичный - доступные источники с открытых трекеров: 
Размер: 598 MB (занимает 0,13 DVDR, для записи нужно 1 болванка DVDR/RW)
 
 

Яндекс.Метрика powered by Sphinx


В Н И М А Н И Е
Сайт не распространяет и не хранит электронные версии произведений, а лишь бесплатно и без коммерческой выгоды (не требуя взамен платы,
SMS и т.д.) предоставляет доступ к создаваемому пользователями каталогу ссылок на торрент-файлы, которые содержат только списки хеш-сумм.
Убедительная просьба с жалобами обращаться напрямую к пользователю, разместившему торрент файл.

Вверх