Loading...
Error

Расул Гамзатов. "Поэт аула и страны" (Ольга Ларина) [2013 г., документальный, биография, литература, поэзия, SatRip]

Статистика раздачи
Размер:  426 MB   |    Зарегистрирован:  3 месяца 5 дней   |    Скачан:  0 раз

Полного источника не было: Никогда

Сидов:  0  |  0 KB/s  ]   Личеров:  0  |  0 KB/s  ]

* - сиды/пиры с внешних источников

   
 
Автор Сообщение

ARI71 Пол:Муж

04-Сен-2016 07:19

Расул Гамзатов. "Поэт аула и страны"


Год выпуска: 2013
Жанр: документальный, биография, литература, поэзия
Страна: Россия ООО Студия "Неофит"
Режиссер: Ольга Ларина
Сюжет фильма:
Вся жизнь Расула Гамзатова была наполнена любовью к людям, родному Дагестану и аулу Цада, откуда он шагнул в большой мир поэзии. Его судьба многим представлялась счастливой и безоблачной. Но мало кто знает, какого мужества требовало от Гамзатова время, чтобы остаться истинным поэтом и сохранить уважение народа.

Расу́л Гамза́тович Гамза́тов (авар. Расул XIамзатов; 8 сентября 1923 — 3 ноября 2003) — советский и российский поэт, прозаик, переводчик, публицист и политический деятель. Народный поэт Дагестанской АССР (1959). Герой Социалистического Труда (1974). Лауреат Ленинской (1963) и Сталинской премии третьей степени (1952).
Качество видео: SatRip

Продолжительность: 00:38:40
Формат: AVI
Видео: XviD, 704x416, 1400 kbps
Аудио: русский, (оригинал), MP3 2.0, 128.00 kbps

Код:

Общее
Полное имя : D:\Расул Гамзатов поэт аула и страны.2013.SATRip.avi
Формат : AVI
Формат/Информация : Audio Video Interleave
Размер файла : 426 Мбайт
Продолжительность : 38 м.
Общий поток : 1541 Кбит/сек
Библиотека кодирования : TMPGEnc 4.0 XPress Version. 4.7.7.307

Видео
Идентификатор : 0
Формат : MPEG-4 Visual
Профиль формата : Simple@L1
Параметр BVOP формата : Нет
Параметр QPel формата : Нет
Параметр GMC формата : Без точки перехода
Параметр матрицы формата : Default (H.263)
Идентификатор кодека : XVID
Идентификатор кодека/Подсказка : XviD
Продолжительность : 38 м.
Битрейт : 1400 Кбит/сек
Ширина : 704 пикселя
Высота : 416 пикселей
Соотношение сторон : 5:3
Частота кадров : 25,000 кадров/сек
Цветовое пространство : YUV
Субдискретизация насыщенности : 4:2:0
Битовая глубина : 8 бит
Тип развёртки : Прогрессивная
Метод сжатия : С потерями
Бит/(Пиксели*Кадры) : 0.191
Размер потока : 387 Мбайт (91%)
Библиотека кодирования : Lavc52.92.0

Аудио
Идентификатор : 1
Формат : MPEG Audio
Версия формата : Version 1
Профиль формата : Layer 3
Режим : Joint stereo
Расширение режима : MS Stereo
Идентификатор кодека : 55
Идентификатор кодека/Подсказка : MP3
Продолжительность : 38 м.
Вид битрейта : Постоянный
Битрейт : 128 Кбит/сек
Каналы : 2 канала
Частота : 48,0 КГц
Метод сжатия : С потерями
Размер потока : 35,4 Мбайт (8%)
Выравнивание : Соединение по промежуткам
Продолжительность промежутка : 40 мс. (1,00 видеокадр)
Время предзагрузки промежутка : 384 мс.
picpicpicpic
Для увеличения картинки щелкните мышкой по превью

Этот торрент недоступен для скачивания без регистрации, однако доступен по публичной magnet-ссылке (источники с публичных трекеров). Перед использованием ссылки прочтите, пожалуйста Пользовательское соглашение, а также как можно дольше оставайтесь на раздаче! Для того, чтобы скачать сам торрент-файл (который видит больше источников), а также для того, чтобы поблагодарить релизера, вам необходимо зарегистрироваться. Если регистрироваться лень - вы можете также попробовать скачать релиз по нашим партнерским ссылкам ниже.

[underverse.su].t69746.torrent
Трекер: Зарегистрирован   [ 04.09.2016 07:19 ]  

Статус: проверено (by makkol at 04.09.2016 10:06)
Поблагодарили: пока никто не поблагодарил...
Тип торрента: публичный - доступные источники с открытых трекеров: 
Размер: 426 MB (занимает 0,1 DVDR, для записи нужно 1 болванка DVDR/RW)
 
 

Яндекс.Метрика powered by Sphinx


В Н И М А Н И Е
Сайт не распространяет и не хранит электронные версии произведений, а лишь бесплатно и без коммерческой выгоды (не требуя взамен платы,
SMS и т.д.) предоставляет доступ к создаваемому пользователями каталогу ссылок на торрент-файлы, которые содержат только списки хеш-сумм.
Убедительная просьба с жалобами обращаться напрямую к пользователю, разместившему торрент файл.

Вверх