Loading...
Error

Легенды Времени. Дин Рид (Жанна Андреева) [2009 г., документальный, биография, история, SatRip]

Статистика раздачи
Размер:  394 MB   |    Зарегистрирован:  3 месяца   |    Скачан:  1 раз

Полного источника не было: 3 месяца

Сидов:  0  |  0 KB/s  ]   Личеров:  0  |  0 KB/s  ]

* - сиды/пиры с внешних источников

   
 
Автор Сообщение

ARI71 Пол:Муж

04-Сен-2016 06:32

Легенды Времени. Дин Рид


Год выпуска: 2009
Жанр: документальный, биография, история
Страна: Россия ЗАО "Первый канал. Всемирная сеть"
Режиссер: Жанна Андреева
Сюжет фильма:
Документальный фильм, посвященный легендарному "красному ковбою", барду, актеру, бунтарю, презрительно выстиравшему флаг США перед Белым домом — Дину Риду. 15 июля 1965 года по трапу самолета приземлившегося в международном аэропорту Шереметьево спускался хорошо одетый, высокий молодой человек с приятной открытой улыбкой. Это был популярный американский певец Дин Рид. В СССР, за "железным занавесом", его пока никто не знает, но очень скоро американский исполнитель станет в Советском Союзе иностранной эстрадной звездой номер один. В разгар "холодной войны", гражданину страны "оплота империализма" - США, если он, конечно, не дипломат, попасть в СССР было чрезвычайно сложно. Комитет Государственной Безопасности пристально глядел за тем, кто и зачем пересекает границы первого в мире социалистического государства. Американский певец Дин Рид ехал в СССР по приглашению советского правительства. К началу 1981 года слава Дина Рида поутихла. И в СССР и в ГДР теперь его слушает только старшее поколение. Молодежь уже во всю увлекается Мадонной, Пинк Флоид и Майклом Джексоном. Рид включает в выступления песни из БИТЛЗ, но ему это мало помогает. Сказывается устаревшая манера исполнения. Теперь "рекорд-компании" пластинок Рида почти не записывают, обходятся штамповкой. Рид переключается на кино. В 1985 году, на студии ДЕФА он пытается запустить очередной фильм "Опасная близость". В это же время об артисте вспоминают на родине. Известный режиссер Уилл Робертс снимает о Риде документальный фильм "Американский бунтарь". В октябре 1985-го, после 5-ти летнего отсутствия Рид едет в США. Вместе с режиссером Робертсом он везет на Международный фестиваль документального кино картину "Американский бунтарь", о самом себе. Американцы должны знать правду.

Дин Сирил Рид (англ. Dean Cyril Reed; 22 сентября 1938, Денвер, штат Колорадо, США — 13 июня 1986, под Берлином, ГДР) — американский певец, киноактёр, кинорежиссёр и общественный деятель, пользовавшийся огромной популярностью в странах Латинской Америки и Восточной Европы.
Качество видео: SatRip

Продолжительность: 00:47:18
Формат: AVI
Видео: XviD, 704x400, 1024 kbps
Аудио: русский, (оригинал), MP3 2.0, 128.00 kbps

Код:

Общее
Полное имя : D:\Легенды_Времени_Дин_Рид _SATRip_xvid.avi
Формат : AVI
Формат/Информация : Audio Video Interleave
Размер файла : 394 Мбайт
Продолжительность : 47 м.
Общий поток : 1165 Кбит/сек
Название фильма : Дин Р РёРґ. Легенды Времени
Программа кодирования : Lavf56.36.100

Видео
Идентификатор : 0
Формат : xvid
Идентификатор кодека : xvid
Продолжительность : 47 м.
Битрейт : 1024 Кбит/сек
Ширина : 704 пикселя
Высота : 400 пикселей
Соотношение сторон : 16:9
Частота кадров : 25,000 кадров/сек
Тип развёртки : Прогрессивная
Бит/(Пиксели*Кадры) : 0.145
Размер потока : 347 Мбайт (88%)

Аудио
Идентификатор : 1
Формат : MPEG Audio
Версия формата : Version 1
Профиль формата : Layer 3
Режим : Joint stereo
Расширение режима : MS Stereo
Идентификатор кодека : 55
Идентификатор кодека/Подсказка : MP3
Продолжительность : 47 м.
Вид битрейта : Постоянный
Битрейт : 128 Кбит/сек
Каналы : 2 канала
Частота : 48,0 КГц
Метод сжатия : С потерями
Размер потока : 43,3 Мбайт (11%)
Выравнивание : Соединение по промежуткам
Продолжительность промежутка : 24 мс. (0,60 видеокадр)
Время предзагрузки промежутка : 24 мс.
Библиотека кодирования : LAME3.99.5
picpicpicpicpic
Для увеличения картинки щелкните мышкой по превью

Этот торрент недоступен для скачивания без регистрации, однако доступен по публичной magnet-ссылке (источники с публичных трекеров). Перед использованием ссылки прочтите, пожалуйста Пользовательское соглашение, а также как можно дольше оставайтесь на раздаче! Для того, чтобы скачать сам торрент-файл (который видит больше источников), а также для того, чтобы поблагодарить релизера, вам необходимо зарегистрироваться. Если регистрироваться лень - вы можете также попробовать скачать релиз по нашим партнерским ссылкам ниже.

[underverse.su].t69745.torrent
Трекер: Зарегистрирован   [ 04.09.2016 06:32 ]  

Статус: проверено (by makkol at 04.09.2016 10:05)
Поблагодарили: пока никто не поблагодарил...
Тип торрента: публичный - доступные источники с открытых трекеров: 
Размер: 394 MB (занимает 0,09 DVDR, для записи нужно 1 болванка DVDR/RW)
 
 

Яндекс.Метрика powered by Sphinx


В Н И М А Н И Е
Сайт не распространяет и не хранит электронные версии произведений, а лишь бесплатно и без коммерческой выгоды (не требуя взамен платы,
SMS и т.д.) предоставляет доступ к создаваемому пользователями каталогу ссылок на торрент-файлы, которые содержат только списки хеш-сумм.
Убедительная просьба с жалобами обращаться напрямую к пользователю, разместившему торрент файл.

Вверх