Loading...
Error

Хранители дикой природы / Keeper of the Wilderness (Роберт Райхл, Эрик Балаж) [2010 г., документальный, природа, флора, фауна, SatRip] Dub + Original (Slo)

Статистика раздачи
Размер:  754 MB   |    Зарегистрирован:  3 месяца 7 дней   |    Скачан:  1 раз

Полного источника не было: 11 дней

Сидов:  0  |  0 KB/s  ]   Личеров:  0  |  0 KB/s  ]

* - сиды/пиры с внешних источников

   
 
Автор Сообщение

ARI71 Пол:Муж

02-Сен-2016 16:08

Хранители дикой природы / Keeper of the Wilderness


Год выпуска: 2010
Жанр: документальный, природа, флора, фауна
Страна: Словакия AROLLA FILM
Режиссер: Роберт Райхл, Эрик Балаж
Сюжет фильма:
Еще недавно Европа не была так плотно заселена. На сегодняшний день осталось лишь небольшое количество нетронутых человеком мест, одним из которых является Тихая долина в словацких Татрах. Труднодоступные ущелья и таинственные леса являются домом приблизительно сорока медведей, которые обитают на воле вдали от человека. Очарованные этими удивительными животными и так называемыми хранителями дикой природы, двое молодых режиссеров решили запечатлеть их жизни на пленку, обращая наше внимание на то, как изменчива и неукротима бывает дикая природа, за которой человек порой может только наблюдать.
Качество видео: SatRip

Продолжительность: 00:53:48
Формат: AVI
Видео: XviD, 720x400, 1560 kbps
Аудио #1: русский, (дублированный), AC3 2.0, 192.00 kbps
Аудио #2: словацкий, (оригинал), AC3 2.0, 192.00 kbps

Код:

Общее
Полное имя : D:\Hraniteli.dikoj.prirody.2010.XviD.SATRip.Zanaves.avi
Формат : AVI
Формат/Информация : Audio Video Interleave
Размер файла : 754 Мбайт
Продолжительность : 53 м.
Общий поток : 1959 Кбит/сек
Программа кодирования : VirtualDubMod 1.5.10.2 (build 2540/release)
Библиотека кодирования : VirtualDubMod build 2540/release

Видео
Идентификатор : 0
Формат : MPEG-4 Visual
Профиль формата : Advanced Simple@L5
Параметр BVOP формата : 2
Параметр QPel формата : Нет
Параметр GMC формата : Без точки перехода
Параметр матрицы формата : Default (H.263)
Режим смешивания : Сжатый битовый поток
Идентификатор кодека : XVID
Идентификатор кодека/Подсказка : XviD
Продолжительность : 53 м.
Битрейт : 1560 Кбит/сек
Ширина : 720 пикселей
Высота : 400 пикселей
Соотношение сторон : 16:9
Частота кадров : 25,000 кадров/сек
Цветовое пространство : YUV
Субдискретизация насыщенности : 4:2:0
Битовая глубина : 8 бит
Тип развёртки : Прогрессивная
Метод сжатия : С потерями
Бит/(Пиксели*Кадры) : 0.217
Размер потока : 600 Мбайт (80%)
Библиотека кодирования : XviD 64

Аудио #1
Идентификатор : 1
Формат : AC-3
Формат/Информация : Audio Coding 3
Расширение режима : CM (complete main)
Параметр Endianness формата : Big
Идентификатор кодека : 2000
Продолжительность : 53 м.
Вид битрейта : Постоянный
Битрейт : 192 Кбит/сек
Каналы : 2 канала
Расположение каналов : Front: L R
Частота : 48,0 КГц
Частота кадров : 31,250 кадров/сек (1536 spf)
Метод сжатия : С потерями
Задержка видео : 81 мс.
Размер потока : 73,9 Мбайт (10%)
Выравнивание : Разделение по промежуткам
Продолжительность промежутка : 40 мс. (1,00 видеокадр)
Время предзагрузки промежутка : 500 мс.

Аудио #2
Идентификатор : 2
Формат : AC-3
Формат/Информация : Audio Coding 3
Расширение режима : CM (complete main)
Параметр Endianness формата : Big
Идентификатор кодека : 2000
Продолжительность : 53 м.
Вид битрейта : Постоянный
Битрейт : 192 Кбит/сек
Каналы : 2 канала
Расположение каналов : Front: L R
Частота : 48,0 КГц
Частота кадров : 31,250 кадров/сек (1536 spf)
Метод сжатия : С потерями
Задержка видео : 37 мс.
Размер потока : 73,9 Мбайт (10%)
Выравнивание : Разделение по промежуткам
Продолжительность промежутка : 40 мс. (1,00 видеокадр)
Время предзагрузки промежутка : 500 мс.
picpicpicpicpic
Для увеличения картинки щелкните мышкой по превью

Этот торрент недоступен для скачивания без регистрации, однако доступен по публичной magnet-ссылке (источники с публичных трекеров). Перед использованием ссылки прочтите, пожалуйста Пользовательское соглашение, а также как можно дольше оставайтесь на раздаче! Для того, чтобы скачать сам торрент-файл (который видит больше источников), а также для того, чтобы поблагодарить релизера, вам необходимо зарегистрироваться. Если регистрироваться лень - вы можете также попробовать скачать релиз по нашим партнерским ссылкам ниже.

[underverse.su].t69700.torrent
Трекер: Зарегистрирован   [ 02.09.2016 16:08 ]  

Статус: проверено (by makkol at 03.09.2016 11:35)
Поблагодарили: пока никто не поблагодарил...
Тип торрента: публичный - доступные источники с открытых трекеров: 
Размер: 754 MB (занимает 0,17 DVDR, для записи нужно 1 болванка DVDR/RW)
 
 
Похожие темы
Форум Тема Автор Торрент Отв. Посл. сооб.
Зарубежное кино [DVDRip, Low-Res HDRip, и т.д.] Хранители / Watchmen (Зак Снайдер) [2009 г., фантастика, боевик, триллер, драма, DVDRip (AC3 5.1)] RuLaN
0 | 0

11 | 3406

51

11.08.2009 19:19

Зарубежное кино [DVDRip, Low-Res HDRip, и т.д.] Хранители / Watchmen (Зак Снайдер) [2009 г., фантастика, боевик, детектив, BDRip] Dub goldrin
0 | 0

2 | 1522

9

08.06.2013 11:37

Наше кино [DVDRip, Low-Res HDRip, и т.д.] Хранители сети (Дмитрий Матов) [2010 г., фантастика, боевик, мелодрама, приключения, DVDRip] eXtatik
0 | 0

0 | 1019

16

03.06.2011 10:12

Мультфильмы HQ Хранители снов / Rise of the Guardians (Питер Рэмси) [2012 г., мультфильм, фэнтези, приключения, семейный, BDRip] Dub (Rus,Ukr) + Original + Subs (Rus,Ukr,Eng) HQ Underverse HQ Underverse
1 | 0

2 | 1619

52

30.03.2013 09:04

Зарубежные мультфильмы Хранители снов / Rise of the Guardians (Питер Рэмси) [2012 г., мультфильм, фэнтези, приключения, семейный, BDRip] Dub 90ytr90
6 | 0

0 | 1471

83

21.03.2013 14:35

Зарубежные мультфильмы Хранители снов / Rise of the Guardians (Питер Рэмси) [2012 г., мультфильм, фэнтези, приключения, семейный, BDRip] Dub 90ytr90
3 | 0

0 | 597

15

21.03.2013 14:45

Зарубежные мультфильмы Хранители снов / Rise of the Guardians (Питер Рэмси) [2012 г., мультфильм, фэнтези, приключения, семейный, BDRip] Dub + Eng 90ytr90
2 | 0

2 | 688

43

15.05.2013 21:15

Научно-популярные фильмы Хранители земли леопарда (1-5 серии из 5) [2016 г., документальный, научно-познавательный, флора, фауна, WEB-DL 720p] ARI71
0 | 0

0 | 402

6

11.02.2016 12:54

Релизы Хранители 2: Последний Секрет Ордена / The Keepers 2: The Order's Last Secret CE [2013 г., Квест, поиск предметов, головоломка] RUS [L] Чертёнок
3 | 0

0 | 1999

16

25.02.2013 12:06

* Архив Хранители / Watchmen (Зак Снайдер) [2009 г., фантастика, боевик, триллер, драма, DVDRip] ZondeR

8 | 1646

29.08.2010 23:52


Яндекс.Метрика powered by Sphinx


В Н И М А Н И Е
Сайт не распространяет и не хранит электронные версии произведений, а лишь бесплатно и без коммерческой выгоды (не требуя взамен платы,
SMS и т.д.) предоставляет доступ к создаваемому пользователями каталогу ссылок на торрент-файлы, которые содержат только списки хеш-сумм.
Убедительная просьба с жалобами обращаться напрямую к пользователю, разместившему торрент файл.

Вверх