Loading...
Error

Поиск / The Search (Мишель Хазанавичус) [2014 г., драма, военный, BDRip] AVO (Живов)

Статистика раздачи
Размер:  2,06 GB   |    Зарегистрирован:  3 месяца 4 дня   |    Скачан:  5 раз

Полного источника не было: 1 месяц 13 дней

Сидов:  0  |  0 KB/s  ]   Личеров:  0  |  0 KB/s  ]

* - сиды/пиры с внешних источников

   
 
Автор Сообщение

makkol Пол:Муж

02-Сен-2016 13:58

Поиск / The Search


Год выпуска: 2014
Жанр: драма, военный
Производство: Франция , Грузия [La Petite Reine, La Classe Américaine, Wild Bunch]
Режиссер: Мишель Хазанавичус
В ролях: Беренис Бежо, Аннетт Бенинг, Максим Емельянов, Абдул Халим Мамуциев, Зухра Дуишвили, Лела Багакашвили, Юрий Цурило, Антон Долгов, Мамука Мачитидзе, Русудан Пареулидзе
Сюжет фильма:
В фильме переплетаются две судьбы - русского парня, у которого милиция обнаружила наркотики и отправила в военкомат, откуда он пошёл воевать на Вторую чеченскую войну, и чеченского мальчика, потерявшего в войне родных. Сотрудница гуманитарного центра (Беренис Бежо) подружилась с мальчиком и хочет забрать ребенка с собой, чтобы увезти его из раздираемого войной региона. Но мальчика ищет его мать, которая полна решимости вернуть сына любой ценой...

  • Мировая премьера: 21 мая 2014


Качество видео: BDRip

Продолжительность: 02:14:35
Формат: AVI
Видео: XviD, 720x384 (1.85:1), 24.000 fps, 1733 kbps
Аудио: русский, авторский одноголосый закадровый (Юрий Живов), AC3 5.1, 48 kHz, 448 kbps

Код:

Формат : AVI
Формат/Информация : Audio Video Interleave
Профиль формата : OpenDML
Размер файла : 2,06 Гбайт
Продолжительность : 2 ч. 14 м.
Общий поток : 2193 Кбит/сек
Программа кодирования : VirtualDubMod 1.5.10.2 (build 2540/release)
Библиотека кодирования : VirtualDubMod build 2540/release

Видео
Идентификатор : 0
Формат : MPEG-4 Visual
Профиль формата : Advanced Simple@L5
Параметр BVOP формата : 1
Параметр QPel формата : Нет
Параметр GMC формата : Без точки перехода
Параметр матрицы формата : Default (MPEG)
Идентификатор кодека : XVID
Идентификатор кодека/Подсказка : XviD
Продолжительность : 2 ч. 14 м.
Битрейт : 1733 Кбит/сек
Ширина : 720 пикселей
Высота : 384 пикселя
Соотношение сторон : 1,85:1
Частота кадров : 24,000 кадра/сек
Цветовое пространство : YUV
Субдискретизация насыщенности : 4:2:0
Битовая глубина : 8 бит
Тип развёртки : Прогрессивная
Метод сжатия : С потерями
Бит/(Пиксели*Кадры) : 0.261
Размер потока : 1,63 Гбайт (79%)
Библиотека кодирования : XviD 67

Аудио
Идентификатор : 1
Формат : AC-3
Формат/Информация : Audio Coding 3
Расширение режима : CM (complete main)
Параметр Endianness формата : Big
Идентификатор кодека : 2000
Продолжительность : 2 ч. 14 м.
Вид битрейта : Постоянный
Битрейт : 448 Кбит/сек
Каналы : 6 каналов
Расположение каналов : Front: L C R, Side: L R, LFE
Частота : 48,0 КГц
Частота кадров : 31,250 кадров/сек (1536 spf)
Метод сжатия : С потерями
Размер потока : 431 Мбайт (20%)
Выравнивание : Разделение по промежуткам
Продолжительность промежутка : 42 мс. (1,00 видеокадр)
Время предзагрузки промежутка : 500 мс.
Заголовок : AVO - Jivov
Автор релиза ylnian
Заказ перевода у Юрия Живова (август 2016) ylnian
За сборку дороги спасибо rammzez
Источник для рипа - Blu-Ray (GER) - Die.Suche.2014.DUAL.COMPLETE.BLURAY-GMB

Фильм, в основном, снят на французском языке, но также есть диалоги на русском (оставил их без перевода), английском и чеченском
picpicpicpicpic
Для увеличения картинки щелкните мышкой по превью

Этот торрент недоступен для скачивания без регистрации, однако доступен по публичной magnet-ссылке (источники с публичных трекеров). Перед использованием ссылки прочтите, пожалуйста Пользовательское соглашение, а также как можно дольше оставайтесь на раздаче! Для того, чтобы скачать сам торрент-файл (который видит больше источников), а также для того, чтобы поблагодарить релизера, вам необходимо зарегистрироваться. Если регистрироваться лень - вы можете также попробовать скачать релиз по нашим партнерским ссылкам ниже.

[underverse.su].t69698.torrent
Трекер: Зарегистрирован   [ 02.09.2016 13:58 ]  

Статус: проверено (by Паукан at 02.09.2016 16:04)
Поблагодарили: пока никто не поблагодарил...
Тип торрента: публичный - доступные источники с открытых трекеров: 
Размер: 2,06 GB (занимает 0,47 DVDR, для записи нужно 1 болванка DVDR/RW)
 
 
Похожие темы
Форум Тема Автор Торрент Отв. Посл. сооб.
Зарубежное кино [DVDRip, Low-Res HDRip, и т.д.] Поиск / The Retrieval (Дэвид Хэкл) [2013 г., драма, вестерн, история, WEB-DLRip] DVO Паукан
5 | 0

0 | 395

9

08.06.2015 08:48


Яндекс.Метрика powered by Sphinx


В Н И М А Н И Е
Сайт не распространяет и не хранит электронные версии произведений, а лишь бесплатно и без коммерческой выгоды (не требуя взамен платы,
SMS и т.д.) предоставляет доступ к создаваемому пользователями каталогу ссылок на торрент-файлы, которые содержат только списки хеш-сумм.
Убедительная просьба с жалобами обращаться напрямую к пользователю, разместившему торрент файл.

Вверх