Loading...
Error

Женщины-викинги / Die Frauen der Wikinger (Viking Women) / (1 сезон: 1-2 серии из 2) / (Йоав Пэриш, Юдит Фёлькер) [2014 г., документальный, игровой, история, SatRip] Dub

Статистика раздачи
Размер:  1,45 GB   |    Зарегистрирован:  3 месяца 6 дней   |    Скачан:  2 раза

Полного источника не было: 24 дня

Сидов:  0  |  0 KB/s  ]   Личеров:  0  |  0 KB/s  ]

* - сиды/пиры с внешних источников

   
 
Автор Сообщение

ARI71 Пол:Муж

02-Сен-2016 13:44

Женщины-викинги / Die Frauen der Wikinger (Viking Women) / (1 сезон: 1-2 серии из 2)


Год выпуска: 2014
Жанр: документальный, игровой, история
Страна: Франция , Германия NDR / ARTE
Режиссер: Йоав Пэриш, Юдит Фёлькер
Сюжет фильма:
Викинги навсегда изменили Европу, хотя о женщинах-викингах вы едва ли сможете найти упоминания в истории. Что совершенно несправедливо, т.к. они сыграли немаловажную роль в мире викингов: они командовали кораблями, основывали колонии, сражались и вели переговоры с императорами. Следы их походов можно найти от Америки до Киева, и без их биографии эра викингов остаётся неполной. Благодаря эксклюзивным интервью с экспертами со всего мира, последним научным находкам и детальным реконструкциям, вы сможете углубиться в мир викингов и узнать много нового об этой давно прошедшей эре.
Качество видео: SatRip

Продолжительность: 2 x ~ 00:52:00
Формат: AVI
Видео: XviD, 704x400, ~1799 kbps
Аудио: русский, (дублированный), AC3 2.0, ~192.00 kbps
(тех. данные всех серий идентичны)

Код:

Общее
Полное имя : D:\Die Frauen der Wikinger\01_Sigruns Flucht nach Island.avi
Формат : AVI
Формат/Информация : Audio Video Interleave
Размер файла : 743 Мбайт
Продолжительность : 51 м.
Общий поток : 1998 Кбит/сек
Программа кодирования : TMPGEnc Video Mastering Works 6 Trial with Movie Plug-in Version. 6.1.5.26
Библиотека кодирования : TMPGEnc Video Mastering Works 6 Trial with Movie Plug-in Version. 6.1.5.26

Видео
Идентификатор : 0
Формат : MPEG-4 Visual
Профиль формата : Advanced Simple@L5
Параметр BVOP формата : 2
Параметр QPel формата : Нет
Параметр GMC формата : Без точки перехода
Параметр матрицы формата : Default (H.263)
Режим смешивания : Сжатый битовый поток
Идентификатор кодека : XVID
Идентификатор кодека/Подсказка : XviD
Продолжительность : 51 м.
Битрейт : 1799 Кбит/сек
Ширина : 704 пикселя
Высота : 400 пикселей
Соотношение сторон : 16:9
Частота кадров : 25,000 кадров/сек
Цветовое пространство : YUV
Субдискретизация насыщенности : 4:2:0
Битовая глубина : 8 бит
Тип развёртки : Прогрессивная
Метод сжатия : С потерями
Бит/(Пиксели*Кадры) : 0.255
Размер потока : 669 Мбайт (90%)
Библиотека кодирования : XviD 73

Аудио
Идентификатор : 1
Формат : AC-3
Формат/Информация : Audio Coding 3
Расширение режима : CM (complete main)
Параметр Endianness формата : Big
Идентификатор кодека : 2000
Продолжительность : 51 м.
Вид битрейта : Постоянный
Битрейт : 192 Кбит/сек
Каналы : 2 канала
Расположение каналов : Front: L R
Частота : 48,0 КГц
Частота кадров : 31,250 кадров/сек (1536 spf)
Метод сжатия : С потерями
Размер потока : 71,4 Мбайт (10%)
Выравнивание : Соединение по промежуткам
Продолжительность промежутка : 333 мс. (8,33 видеокадров)
01. Гнев Сигрун и открытие Исландии / Sigruns Flucht nach Island
Эта вдохновляющая история о Сигрун, которую ребёнком похитили из дому. Чтобы сбежать от мужа, она построила корабль и отправилась в экспедицию, где наткнулась на неизвестный остров.

02. Наследие Йовы и падение Хедебю / Jovas Erbe und der Untergang Haithabus
Эта захватывающая история о Йове, которая в 1064 году отправилась в Данию на поиски своего пропавшего отца. Также мы узнаем о постоянно меняющемся мире викингов.
Автор Rip'а: skorpionN

Документальный дубляж - "SDI Media"
Голос рассказчика - полный дубляж
Интервью - слышна оригинальная речь

Перевод - Сергея Антонова, текст читают - Олеся Шалецкая и Михаил Карасиков
picpicpicpicpic
Для увеличения картинки щелкните мышкой по превью

Этот торрент недоступен для скачивания без регистрации, однако доступен по публичной magnet-ссылке (источники с публичных трекеров). Перед использованием ссылки прочтите, пожалуйста Пользовательское соглашение, а также как можно дольше оставайтесь на раздаче! Для того, чтобы скачать сам торрент-файл (который видит больше источников), а также для того, чтобы поблагодарить релизера, вам необходимо зарегистрироваться. Если регистрироваться лень - вы можете также попробовать скачать релиз по нашим партнерским ссылкам ниже.

[underverse.su].t69697.torrent
Трекер: Зарегистрирован   [ 02.09.2016 13:44 ]  

Статус: проверено (by makkol at 02.09.2016 14:03)
Поблагодарили: 1 человек
Тип торрента: публичный - доступные источники с открытых трекеров: 
Размер: 1,45 GB (занимает 1/3 DVDR, для записи нужно 1 болванка DVDR/RW)
 
 

Яндекс.Метрика powered by Sphinx


В Н И М А Н И Е
Сайт не распространяет и не хранит электронные версии произведений, а лишь бесплатно и без коммерческой выгоды (не требуя взамен платы,
SMS и т.д.) предоставляет доступ к создаваемому пользователями каталогу ссылок на торрент-файлы, которые содержат только списки хеш-сумм.
Убедительная просьба с жалобами обращаться напрямую к пользователю, разместившему торрент файл.

Вверх