Loading...
Error

Звезды эфира. Александр Иванов (Олег Иваненко) [2004 г., документальный, биография, VHSRip]

Статистика раздачи
Размер:  220 MB   |    Зарегистрирован:  3 месяца 4 дня   |    Скачан:  0 раз

Полного источника не было: Никогда

Сидов:  0  |  0 KB/s  ]   Личеров:  0  |  0 KB/s  ]

* - сиды/пиры с внешних источников

   
 
Автор Сообщение

ARI71 Пол:Муж

31-Авг-2016 19:38

Звезды эфира. Александр Иванов


Год выпуска: 2004
Жанр: документальный, биография
Страна: Россия ОАО "Первый канал"
Режиссер: Олег Иваненко
Текст читает: Илья Прудовский
Сюжет фильма:
Александр Иванов – самый серьезный ведущий самой несерьезной передачи советского телевидения. В программе "Вокруг смеха" страна впервые увидела своих юмористов. До этого Жванецкого, Инина, Арканова никто не знал в лицо. Ведущий программы, известный в основном в литературных кругах поэт-пародист Александр Иванов, за один вечер превратился в телезвезду Сан Саныча.
Александр Иванов был замкнутым человеком. Он никогда не рассказывал о том, как жил до 78 года, когда вышла передача "Вокруг смеха". После смерти отца ему пришлось бросить институт и пойти работать. До 27 лет он преподавал начертательную геометрию в техникуме и писал пародии в стол. Все изменила публикация в журнале "Юность".
В фильме рассказывается об истории создания программы "Вокруг смеха" и о другой стороне жизни Александра Иванова. О его семье, о том, как сложилась его жизнь после закрытия программы. В фильм вошли воспоминания его коллег и друзей Жванецкого, Арканова, Хазанова и других.

Алекса́ндр Алекса́ндрович Ивано́в (9 декабря 1936, Москва — 12 июня 1996, там же) — советский и российский поэт-пародист, бессменный ведущий телепередачи «Вокруг смеха» (1978—1990).
Качество видео: VHSRip

Продолжительность: 00:26:21
Формат: AVI
Видео: XviD, 720x480, 1025 kbps
Аудио: русский, (оригинал), MP3 2.0, 128.00 kbps

Код:

Общее
Полное имя : D:\Aleksandr_Ivanov_zvezdy_efira_xvid.avi
Формат : AVI
Формат/Информация : Audio Video Interleave
Размер файла : 220 Мбайт
Продолжительность : 26 м.
Общий поток : 1167 Кбит/сек
Программа кодирования : Lavf56.36.100

Видео
Идентификатор : 0
Формат : xvid
Идентификатор кодека : xvid
Продолжительность : 26 м.
Битрейт : 1025 Кбит/сек
Ширина : 720 пикселей
Высота : 480 пикселей
Соотношение сторон : 3:2
Частота кадров : 30,000 кадров/сек
Тип развёртки : Прогрессивная
Бит/(Пиксели*Кадры) : 0.099
Размер потока : 193 Мбайт (88%)
Заголовок : Video

Аудио
Идентификатор : 1
Формат : MPEG Audio
Версия формата : Version 1
Профиль формата : Layer 3
Режим : Joint stereo
Расширение режима : MS Stereo
Идентификатор кодека : 55
Идентификатор кодека/Подсказка : MP3
Продолжительность : 26 м.
Вид битрейта : Постоянный
Битрейт : 128 Кбит/сек
Каналы : 2 канала
Частота : 48,0 КГц
Метод сжатия : С потерями
Размер потока : 24,1 Мбайт (11%)
Выравнивание : Соединение по промежуткам
Продолжительность промежутка : 24 мс. (0,72 видеокадр)
Время предзагрузки промежутка : 72 мс.
Заголовок : Audio
Библиотека кодирования : LAME3.99.5
picpicpicpicpic
Для увеличения картинки щелкните мышкой по превью

Этот торрент недоступен для скачивания без регистрации, однако доступен по публичной magnet-ссылке (источники с публичных трекеров). Перед использованием ссылки прочтите, пожалуйста Пользовательское соглашение, а также как можно дольше оставайтесь на раздаче! Для того, чтобы скачать сам торрент-файл (который видит больше источников), а также для того, чтобы поблагодарить релизера, вам необходимо зарегистрироваться. Если регистрироваться лень - вы можете также попробовать скачать релиз по нашим партнерским ссылкам ниже.

[underverse.su].t69633.torrent
Трекер: Зарегистрирован   [ 31.08.2016 19:38 ]  

Статус: проверено (by makkol at 31.08.2016 21:47)
Поблагодарили: пока никто не поблагодарил...
Тип торрента: публичный - доступные источники с открытых трекеров: 
Размер: 220 MB (занимает 0,05 DVDR, для записи нужно 1 болванка DVDR/RW)
 
 
Похожие темы
Форум Тема Автор Торрент Отв. Посл. сооб.
Личности Звезды эфира: Маврикиевна и Никитична (Георгий Ананов) [2004 г., документальный, биография, искусство, SatRip] ARI71
6 | 0

1 | 267

1

21.11.2016 18:26

Личности Звезды эфира. Николай Озеров (Олег Иваненко) [2004 г., документальный, биография, SatRip] ARI71
0 | 0

0 | 279

3

27.08.2016 12:12

Личности Звезды эфира. Юрий Сенкевич (Олег Иваненко) [2004 г., документальный, биография, SatRip] ARI71
0 | 1

0 | 259

1

27.08.2016 12:29

Личности Звезды эфира. Николай Дроздов (Олег Иваненко) [2005 г., документальный, биография, SatRip] ARI71
0 | 0

0 | 398

0

28.08.2016 08:49

Личности Звезды эфира. Зиновий Гердт (Олег Иваненко) [2005 г., документальный, биография, SatRip] ARI71
1 | 0

0 | 267

1

28.08.2016 09:02

Личности Звезды эфира. Сергей Супонев (Олег Иваненко) [2005 г., документальный, биография, SatRip] ARI71
0 | 1

0 | 184

0

29.08.2016 18:00

Личности Звезды эфира. Александр Бовин (Олег Иваненко) [2004 г., документальный, биография, TVRip] ARI71
0 | 0

0 | 168

0

29.08.2016 18:12


Яндекс.Метрика powered by Sphinx


В Н И М А Н И Е
Сайт не распространяет и не хранит электронные версии произведений, а лишь бесплатно и без коммерческой выгоды (не требуя взамен платы,
SMS и т.д.) предоставляет доступ к создаваемому пользователями каталогу ссылок на торрент-файлы, которые содержат только списки хеш-сумм.
Убедительная просьба с жалобами обращаться напрямую к пользователю, разместившему торрент файл.

Вверх