Loading...
Error

Частная жизнь Тюдоров / Private life of Tudors (1-3 серии из 3) / (Брюс Бюргесс) [2016 г., документальный, постановочный, история, исследования, SatRip] Dub

Статистика раздачи
Размер:  1,85 GB   |    Зарегистрирован:  3 месяца 7 дней   |    Скачан:  1 раз

Полного источника не было: 27 дней

Сидов:  0  |  0 KB/s  ]   Личеров:  0  |  0 KB/s  ]

* - сиды/пиры с внешних источников

   
 
Автор Сообщение

ARI71 Пол:Муж

31-Авг-2016 12:54

Частная жизнь Тюдоров / Private life of Tudors (1-3 серии из 3)


Год выпуска: 2016
Жанр: документальный, постановочный, история, исследования
Страна: Великобритания Like A Shot Entertainment
Режиссер: Брюс Бюргесс
Ведущая: Трэйси Борман
Сюжет фильма:
Многие слышали о Тюдорах, но кто, на самом деле, понимает и знает, какой была их жизнь? Трэйси Борман, эксперт по Тюдорам, исследует жизнь, страсти и скандалы одной из самых известных династий в истории Британии, от основателя Тюдоров - Генриха VII, чья красавица-жена Елизавета Йоркская забеременела во время брачной церемонии, до их неудержимого сына Генриха VIII, чья скандальная жизнь прогремела на всю Европу и разделила Англию на части. Главными героями передачи являются монархи, но не менее важной темой является личная жизнь их придворных. В центре внимания - двор, где секс и власть, отношение мужчин к женщинам да и сама архитектура создали атмосферу скандалов, разгоравшихся почти каждый день. Точная и атмосферная реконструкция помогают Трэйси вновь воссоздать то, что на самом деле происходило в залах, где Тюдоры и их придворные проводили свою жизнь.
Качество видео: SatRip

Продолжительность: 3 x ~ 00:44:00
Формат: AVI
Видео: XviD, 704x400, ~1799 kbps
Аудио: русский, (дублированный), AC3 2.0, 192.00 kbps
(тех. данные всех серий идентичны)

Код:

Общее
Полное имя : D:\Private life of Tudors\01_Henry VIII_Rise of a Dynasty.avi
Формат : AVI
Формат/Информация : Audio Video Interleave
Размер файла : 629 Мбайт
Продолжительность : 44 м.
Общий поток : 1999 Кбит/сек
Программа кодирования : TMPGEnc Video Mastering Works 6 Trial with Movie Plug-in Version. 6.1.5.26
Библиотека кодирования : TMPGEnc Video Mastering Works 6 Trial with Movie Plug-in Version. 6.1.5.26

Видео
Идентификатор : 0
Формат : MPEG-4 Visual
Профиль формата : Simple@L0
Параметр BVOP формата : Нет
Параметр QPel формата : Нет
Параметр GMC формата : Без точки перехода
Параметр матрицы формата : Default (H.263)
Идентификатор кодека : XVID
Идентификатор кодека/Подсказка : XviD
Продолжительность : 44 м.
Битрейт : 1799 Кбит/сек
Ширина : 704 пикселя
Высота : 400 пикселей
Соотношение сторон : 16:9
Частота кадров : 25,000 кадров/сек
Цветовое пространство : YUV
Субдискретизация насыщенности : 4:2:0
Битовая глубина : 8 бит
Тип развёртки : Прогрессивная
Метод сжатия : С потерями
Бит/(Пиксели*Кадры) : 0.256
Размер потока : 566 Мбайт (90%)
Библиотека кодирования : XviD 1.1.2 (UTC 2006-11-01)

Аудио
Идентификатор : 1
Формат : AC-3
Формат/Информация : Audio Coding 3
Расширение режима : CM (complete main)
Параметр Endianness формата : Big
Идентификатор кодека : 2000
Продолжительность : 44 м.
Вид битрейта : Постоянный
Битрейт : 192 Кбит/сек
Каналы : 2 канала
Расположение каналов : Front: L R
Частота : 48,0 КГц
Частота кадров : 31,250 кадров/сек (1536 spf)
Метод сжатия : С потерями
Размер потока : 60,4 Мбайт (10%)
Выравнивание : Соединение по промежуткам
Продолжительность промежутка : 333 мс. (8,34 видеокадров)
Автор Rip'а: skorpionN

Документальный дубляж - "SDI Media"
Голос рассказчика - полный дубляж
Интервью - слышна оригинальная речь

Перевод - Ольги Юлдашевой, текст читает - Виктория Бабанова
01. Генрих VIII - Расцвет династии / Henry VIII - Rise of a Dynasty
Благодаря уникальному доступу к брачному ложе Генриха VII, мы подробнее узнаем о том, как проходила церемония зачатия у Тюдоров, а также о суровых реалиях рождения ребёнка в те времена.

02. Генрих VIII - Король-тиран / Henry VIII - The Tyrant King
Сегодня мы узнаем о временах правления Генриха VIII, чем питались придворные, какую роль сыграла медицина, а также правду о смерти Джейн Сеймур.

03. Елизавета I - Золотой век / Elizabeth I - The Golden Age
Неправильное использование ртути, повлекшее за собой смерть Эдуарда VI, необъяснимая беременность королевы Марии и гниющие зубы королевы Елизаветы - всё это реалии времён правления Генриха VIII
picpicpicpicpic
Для увеличения картинки щелкните мышкой по превью

Этот торрент недоступен для скачивания без регистрации, однако доступен по публичной magnet-ссылке (источники с публичных трекеров). Перед использованием ссылки прочтите, пожалуйста Пользовательское соглашение, а также как можно дольше оставайтесь на раздаче! Для того, чтобы скачать сам торрент-файл (который видит больше источников), а также для того, чтобы поблагодарить релизера, вам необходимо зарегистрироваться. Если регистрироваться лень - вы можете также попробовать скачать релиз по нашим партнерским ссылкам ниже.

[underverse.su].t69607.torrent
Трекер: Зарегистрирован   [ 31.08.2016 12:54 ]  

Статус: проверено (by 90ytr90 at 31.08.2016 13:13)
Поблагодарили: пока никто не поблагодарил...
Тип торрента: публичный - доступные источники с открытых трекеров: 
Размер: 1,85 GB (занимает 0,42 DVDR, для записи нужно 1 болванка DVDR/RW)
 
 
Похожие темы
Форум Тема Автор Торрент Отв. Посл. сооб.
* Архив Частная жизнь Пиппы Ли / The Private Lives of Pippa Lee / 2009 / DVDRip (Ребекка Миллер) [2009 г., драма, DVDRip] niif111

1 | 611

29.08.2010 23:52


Яндекс.Метрика powered by Sphinx


В Н И М А Н И Е
Сайт не распространяет и не хранит электронные версии произведений, а лишь бесплатно и без коммерческой выгоды (не требуя взамен платы,
SMS и т.д.) предоставляет доступ к создаваемому пользователями каталогу ссылок на торрент-файлы, которые содержат только списки хеш-сумм.
Убедительная просьба с жалобами обращаться напрямую к пользователю, разместившему торрент файл.

Вверх