Loading...
Error

Только у нас: Евгений Крылатов "Прекрасное далеко" (Максим Грудев) [2014 г., документальный, биография, SatRip]

Статистика раздачи
Размер:  350 MB   |    Зарегистрирован:  3 месяца 4 дня   |    Скачан:  1 раз

Полного источника не было: 2 месяца 27 дней

Сидов:  0  |  0 KB/s  ]   Личеров:  0  |  0 KB/s  ]

* - сиды/пиры с внешних источников

   
 
Автор Сообщение

ARI71 Пол:Муж

31-Авг-2016 11:35

Только у нас: Евгений Крылатов "Прекрасное далеко"


Год выпуска: 2014
Жанр: документальный, биография
Страна: Россия Канал "Комсомольская правда"
Режиссер: Максим Грудев
В ролях: Евгений Крылатов
Ведущие: Александр Гамов, Любовь Моисеева
Сюжет фильма:
Песни Евгения Крылатова любят и поют миллионы людей. «Прекрасное далеко», «Крылатые качели», «Три белых коня», «Колыбельная» для медвежонка Умки – достаточно упоминания названий, чтобы вызвать у старшего поколения приступ доброй ностальгии, а у младшего – просто прилив хорошего настроения.

Евге́ний Па́влович Крыла́тов (род. 23 февраля 1934 года, Лысьва, Свердловская область (в наст. время — город в Пермском крае)— советский и российский композитор. Народный артист Российской Федерации (1994). Лауреат Государственной премии СССР (1982). Лауреат премии Президента Российской Федерации в области литературы и искусства за произведения для детей и юношества (2014).
Написал музыку более чем к 120 фильмам и мультфильмам. Член Союза композиторов, Союза кинематографистов и Союза театральных деятелей.
Качество видео: SatRip

Продолжительность: 00:23:37
Формат: AVI
Видео: XviD, 720x384, 1872 kbps
Аудио: русский, (оригинал), AC3 2.0, 192.00 kbps

Код:

Общее
Полное имя : D:\Tolko.u.nas.Evgeny.Krylatov.Prekrasnoe.daleko.XviD.2014.SATRip.Generalfilm.avi
Формат : AVI
Формат/Информация : Audio Video Interleave
Размер файла : 350 Мбайт
Продолжительность : 23 м.
Общий поток : 2074 Кбит/сек
Программа кодирования : VirtualDubMod 1.5.10.3 | www.virtualdub-fr.org || (build 2550/release)
Библиотека кодирования : VirtualDubMod build 2550/release

Видео
Идентификатор : 0
Формат : MPEG-4 Visual
Профиль формата : Advanced Simple@L5
Параметр BVOP формата : 2
Параметр QPel формата : Нет
Параметр GMC формата : Без точки перехода
Параметр матрицы формата : Выборочная
Идентификатор кодека : XVID
Идентификатор кодека/Подсказка : XviD
Продолжительность : 23 м.
Битрейт : 1872 Кбит/сек
Ширина : 720 пикселей
Высота : 384 пикселя
Соотношение сторон : 1,85:1
Частота кадров : 25,000 кадров/сек
Цветовое пространство : YUV
Субдискретизация насыщенности : 4:2:0
Битовая глубина : 8 бит
Тип развёртки : Прогрессивная
Метод сжатия : С потерями
Бит/(Пиксели*Кадры) : 0.271
Размер потока : 316 Мбайт (90%)
Библиотека кодирования : XviD 1.2.1 (UTC 2008-12-04)

Аудио
Идентификатор : 1
Формат : AC-3
Формат/Информация : Audio Coding 3
Расширение режима : CM (complete main)
Параметр Endianness формата : Big
Идентификатор кодека : 2000
Продолжительность : 23 м.
Вид битрейта : Постоянный
Битрейт : 192 Кбит/сек
Каналы : 2 канала
Расположение каналов : Front: L R
Частота : 48,0 КГц
Частота кадров : 31,250 кадров/сек (1536 spf)
Метод сжатия : С потерями
Размер потока : 32,4 Мбайт (9%)
Выравнивание : Разделение по промежуткам
Продолжительность промежутка : 40 мс. (1,00 видеокадр)
Время предзагрузки промежутка : 500 мс.
picpicpicpic
Для увеличения картинки щелкните мышкой по превью

Этот торрент недоступен для скачивания без регистрации, однако доступен по публичной magnet-ссылке (источники с публичных трекеров). Перед использованием ссылки прочтите, пожалуйста Пользовательское соглашение, а также как можно дольше оставайтесь на раздаче! Для того, чтобы скачать сам торрент-файл (который видит больше источников), а также для того, чтобы поблагодарить релизера, вам необходимо зарегистрироваться. Если регистрироваться лень - вы можете также попробовать скачать релиз по нашим партнерским ссылкам ниже.

[underverse.su].t69603.torrent
Трекер: Зарегистрирован   [ 31.08.2016 11:35 ]  

Статус: проверено (by makkol at 03.09.2016 11:36)
Поблагодарили: пока никто не поблагодарил...
Тип торрента: публичный - доступные источники с открытых трекеров: 
Размер: 350 MB (занимает 0,08 DVDR, для записи нужно 1 болванка DVDR/RW)
 
 

Яндекс.Метрика powered by Sphinx


В Н И М А Н И Е
Сайт не распространяет и не хранит электронные версии произведений, а лишь бесплатно и без коммерческой выгоды (не требуя взамен платы,
SMS и т.д.) предоставляет доступ к создаваемому пользователями каталогу ссылок на торрент-файлы, которые содержат только списки хеш-сумм.
Убедительная просьба с жалобами обращаться напрямую к пользователю, разместившему торрент файл.

Вверх