Loading...
Error

Неоновый демон / The Neon Demon (Николас Виндинг Рефн) [2016 г., ужасы, триллер, WEB-DLRip] Dub (звук с TS)

Статистика раздачи
Размер:  1,45 GB   |    Зарегистрирован:  3 месяца 4 дня   |    Скачан:  13 раз

Полного источника не было: 17 часов

Сидов:  0  |  0 KB/s  ]   Личеров:  0  |  0 KB/s  ]

* - сиды/пиры с внешних источников

   
 
Автор Сообщение

makkol Пол:Муж

30-Авг-2016 22:27

Неоновый демон / The Neon Demon


Год выпуска: 2016
Жанр: ужасы, триллер
Производство: Франция , Дания , США [Bold Films, Space Rocket Nation, Vendian Entertainment]
Режиссер: Николас Виндинг Рефн
В ролях: Элль Фэннинг, Карл Глусман, Джена Мэлоун, Белла Хиткот, Эбби Ли, Десмонд Хэррингтон, Кристина Хендрикс, Киану Ривз, Чарльз Бэйкер, Джеми Клейтон
Сюжет фильма:
Провинциалка Джесси, мечтающая стать супермоделью, едва окончив школу, отправляется покорять Лос-Анджелес. Через тернии (одна, без денег, чужой город, дешевый мотель), но и через нужные знакомства, фотосессии, вечеринки — к звездам. И вот это сладкое слово «слава» становится былью для юной красавицы. Но за стремительный карьерный взлет придется расплатиться — конкурентки из ненависти и безумной зависти готовы на многое.

  • Мировая премьера: 10 марта 2016
  • Российская премьера: 28 июля 2016


Качество видео: WEB-DLRip

Продолжительность: 01:57:53
Формат: AVI
Видео: XviD, 720x304 (2.35:1), 23.976 fps, 1565 kbps
Аудио: русский, дублированный (звук с TS), AC3 2.0, 48 kHz, 192 kbps

Код:

Формат : AVI
Формат/Info : Audio Video Interleave
Размер файла : 1.45 GiB
Длительность : 1 h 57 min
Общий Битрейт : 1 767 kb/s
Создано приложением : VirtualDubMod 1.5.10.2 (build 2540/release)
Writing library : VirtualDubMod build 2540/release

Video
ID : 0
Формат : MPEG-4 Visual
Формат profile : Advanced Simple@L5
Формат настройки, BVOP : 2
Формат настройки, QPel : No
Формат настройки, GMC : No warppoints
Формат настройки, Matrix : Custom
Кодек ID : XVID
Кодек ID/Hint : XviD
Длительность : 1 h 57 min
Битрейт : 1 565 kb/s
Width : 720 пикселей
Высота : 304 пикселей
Соотношение кадра : 2.35:1
Частота кадров : 23.976 (24000/1001) FPS
Цветопередача : YUV
Chroma subsampling : 4:2:0
Разрядность : 8 bits
Тип сканирования : Progressive
Режим сжатия : Lossy
Bits/(Pixel*Frame) : 0.298
Размер потока : 1.29 GiB (89%)
Writing library : XviD 1.2.1 (UTC 2008-12-04)

Audio
ID : 1
Формат : AC-3
Формат/Info : Audio Coding 3
Расширение режима : CM (complete main)
Формат настройки, Endianness : Big
Кодек ID : 2000
Длительность : 1 h 57 min
Битрейт mode : Constant
Битрейт : 192 kb/s
Channel(s) : 2 канала
Channel positions : Front: L R
Частота : 48.0 kHz
Частота кадров : 31.250 FPS (1536 spf)
Режим сжатия : Lossy
Размер потока : 162 MiB (11%)
Выравнивание : Split accross interleaves
Interleave, Длительность : 42 ms (1.00 video frame)
Interleave, preload Длительность : 500 ms
Присутствует реклама


picpicpicpicpic
Для увеличения картинки щелкните мышкой по превью

Этот торрент недоступен для скачивания без регистрации, однако доступен по публичной magnet-ссылке (источники с публичных трекеров). Перед использованием ссылки прочтите, пожалуйста Пользовательское соглашение, а также как можно дольше оставайтесь на раздаче! Для того, чтобы скачать сам торрент-файл (который видит больше источников), а также для того, чтобы поблагодарить релизера, вам необходимо зарегистрироваться. Если регистрироваться лень - вы можете также попробовать скачать релиз по нашим партнерским ссылкам ниже.

[underverse.su].t69587.torrent
Трекер: Зарегистрирован   [ 30.08.2016 22:27 ]  

Статус: T временная (by makkol at 31.08.2016 23:18)
Поблагодарили: пока никто не поблагодарил...
Тип торрента: публичный - доступные источники с открытых трекеров: 
Размер: 1,45 GB (занимает 1/3 DVDR, для записи нужно 1 болванка DVDR/RW)
 
 
Похожие темы
Форум Тема Автор Торрент Отв. Посл. сооб.
T Зарубежное кино [DVDRip, Low-Res HDRip, и т.д.] Неоновый демон / The Neon Demon (Николас Виндинг Рефн / Nicolas Winding Refn) [2016 г., ужасы, триллер, BDRip-AVC] Dub (iTunes) + Sub (Rus) 90ytr90
33 | 0

0 | 478

4

27.11.2016 10:59

T Зарубежное кино [DVDRip, Low-Res HDRip, и т.д.] Неоновый демон / The Neon Demon (Николас Виндинг Рефн / Nicolas Winding Refn) [2016 г., ужасы, триллер, HDRip] Dub (iTunes) 90ytr90
33 | 2

0 | 191

3

08.11.2016 11:27

T Зарубежное кино [DVDRip, Low-Res HDRip, и т.д.] Неоновый демон / The Neon Demon (Николас Виндинг Рефн / Nicolas Winding Refn) [2016 г., ужасы, триллер, BDRip] Dub (iTunes) 90ytr90
1149 | 69

0 | 218

2

08.11.2016 11:22

T Зарубежное кино [DVDRip, Low-Res HDRip, и т.д.] Неоновый демон / The Neon Demon (Николас Виндинг Рефн / Nicolas Winding Refn) [2016 г., ужасы, триллер, HDRip] Dub (iTunes) + Original (Eng) + Sub (Rus, Eng) 90ytr90
75 | 4

0 | 339

3

07.11.2016 22:37

Зарубежное кино [DVDRip, Low-Res HDRip, и т.д.] Неоновый демон / The Neon Demon (Николас Виндинг Рефн / Nicolas Winding Refn) [2016 г., ужасы, триллер, HDRip] 2xAVO (Матвеев) 90ytr90
10 | 0

0 | 383

2

14.09.2016 21:23

Зарубежное кино [DVDRip, Low-Res HDRip, и т.д.] Неоновый демон / The Neon Demon (Николас Виндинг Рефн / Nicolas Winding Refn) [2016 г., ужасы, триллер, BDRip] AVO (Матвеев, с цензурой) 90ytr90
18 | 1

0 | 348

4

19.09.2016 19:13

Зарубежное кино [DVDRip, Low-Res HDRip, и т.д.] Неоновый демон / The Neon Demon (Николас Виндинг Рефн / Nicolas Winding Refn) [2016 г., ужасы, триллер, WEB-DLRip] AVO (Матвеев) 90ytr90
10 | 0

0 | 412

1

03.09.2016 19:17

Зарубежное кино [DVDRip, Low-Res HDRip, и т.д.] Неоновый демон / The Neon Demon (Николас Виндинг Рефн / Nicolas Winding Refn) [2016 г., ужасы, триллер, WEB-DLRip] 2xAVO (Матвеев) 90ytr90
25 | 0

0 | 412

0

03.09.2016 20:21

T Зарубежное кино [DVDRip, Low-Res HDRip, и т.д.] Неоновый демон / The Neon Demon (Николас Виндинг Рефн / Nicolas Winding Refn) [2016 г., ужасы, триллер, WEB-DLRip] Dub (чистый звук) 90ytr90
121 | 4

0 | 528

16

03.09.2016 20:38

T Зарубежное кино [HDDVDRip / BDRip / WEB-DL / HDTV 1080/720р] Неоновый демон / The Neon Demon (Николас Виндинг Рефн / Nicolas Winding Refn) [2016 г., ужасы, триллер, BDRip 720p] Dub (iTunes) + 2xAVO (Матвеев+ Original (Eng) + Sub (Rus, Eng) 90ytr90
132 | 13

0 | 148

3

07.11.2016 23:01


Яндекс.Метрика powered by Sphinx


В Н И М А Н И Е
Сайт не распространяет и не хранит электронные версии произведений, а лишь бесплатно и без коммерческой выгоды (не требуя взамен платы,
SMS и т.д.) предоставляет доступ к создаваемому пользователями каталогу ссылок на торрент-файлы, которые содержат только списки хеш-сумм.
Убедительная просьба с жалобами обращаться напрямую к пользователю, разместившему торрент файл.

Вверх