Loading...
Error

Племя / Tribe (1-5 серий из 5) / (Джеймс Смит) [2005 г., документальный, приключения, география, SatRip] VO

Статистика раздачи
Размер:  3,4 GB   |    Зарегистрирован:  3 месяца 10 дней   |    Скачан:  1 раз

Полного источника не было: 19 дней

Сидов:  0  |  0 KB/s  ]   Личеров:  0  |  0 KB/s  ]

* - сиды/пиры с внешних источников

   
 
Автор Сообщение

ARI71 Пол:Муж

30-Авг-2016 16:10

Племя / Tribe (1-5 серий из 5)


Год выпуска: 2005
Жанр: документальный, приключения, география
Страна: Великобритания BBC
Режиссер: Джеймс Смит
В ролях: Брюс Перри
Сюжет фильма:
Исследователь Брюс Перри посещает отдалённые племена в разных уголках мира, чтобы узнать их культуру, обычаи и как современность меняет их жизнь. Для этого на некоторое время он становится членом племени.
Гималаи, Эфиопия, Новая Гвинея, Монголия – вот неполная география путешествий отважного Брюса. Неприступные горы, непроходимые джунгли, малярийные болота – только здесь можно увидеть людей, не имеющих контактов с внешним миром. Кто-то из них до сих пор поедает своих сородичей, кто-то преодолевает огромные расстояния верхом на лошадях, абсолютно не желая понимать, что такое граница…
Рейтинг: IMDB 8,7/ 10

Качество видео: SatRip

Продолжительность: 5 х ~00:50:49
Формат: AVI
Видео: DivX 5, 720x576, ~1528 kbps
Аудио: русский, одноголосый [профессиональный], AC3 (mono), ~96.00 kbps
(тех. данные всех серий идентичны)

Код:

Общее
Полное имя : D:\Племя\Ади.avi
Формат : AVI
Формат/Информация : Audio Video Interleave
Размер файла : 574 Мбайт
Продолжительность : 49 м.
Общий поток : 1634 Кбит/сек
Библиотека кодирования : VirtualDub-MPEG2 build 23858/release

Видео
Идентификатор : 0
Формат : MPEG-4 Visual
Параметр BVOP формата : Да
Параметр QPel формата : Нет
Параметр GMC формата : Без точки перехода
Параметр матрицы формата : Default (H.263)
Идентификатор кодека : DX50
Идентификатор кодека/Подсказка : DivX 5
Продолжительность : 49 м.
Битрейт : 1528 Кбит/сек
Ширина : 720 пикселей
Высота : 576 пикселей
Соотношение сторон : 5:4
Частота кадров : 25,000 кадров/сек
Стандарт вещания : PAL
Цветовое пространство : YUV
Субдискретизация насыщенности : 4:2:0
Битовая глубина : 8 бит
Тип развёртки : Прогрессивная
Метод сжатия : С потерями
Бит/(Пиксели*Кадры) : 0.147
Размер потока : 537 Мбайт (94%)
Библиотека кодирования : DivX 5.2.1 (WaffleDay) (UTC 2004-09-08)

Аудио
Идентификатор : 1
Формат : AC-3
Формат/Информация : Audio Coding 3
Расширение режима : CM (complete main)
Параметр Endianness формата : Big
Идентификатор кодека : 2000
Продолжительность : 49 м.
Вид битрейта : Постоянный
Битрейт : 96,0 Кбит/сек
Каналы : 1 канал
Расположение каналов : Front: C
Частота : 48,0 КГц
Частота кадров : 31,250 кадров/сек (1536 spf)
Метод сжатия : С потерями
Размер потока : 33,7 Мбайт (6%)
Выравнивание : Соединение по промежуткам
Продолжительность промежутка : 40 мс. (1,00 видеокадр)
Время предзагрузки промежутка : 512 мс.
1. Ади: Поездка в северо-восточную Индию. Эпизод включает в себя жертву быка.
2. Сури. Опасная игра: Брюс Перри отправился в Эфиопию.
3. Комбаи. Жизнь с каннибалами: Перри отправился в Западное Папуа.
4. Бабонго: Африканский Quest Vision (Просьба о Видении). Брюс Перри отправился в Габон.
5. Дархад. Верховая Мастера Монголии: Перри отправился в Монголию. Он был свидетелем шаманского ритуала.
picpicpicpicpic
Для увеличения картинки щелкните мышкой по превью

Этот торрент недоступен для скачивания без регистрации, однако доступен по публичной magnet-ссылке (источники с публичных трекеров). Перед использованием ссылки прочтите, пожалуйста Пользовательское соглашение, а также как можно дольше оставайтесь на раздаче! Для того, чтобы скачать сам торрент-файл (который видит больше источников), а также для того, чтобы поблагодарить релизера, вам необходимо зарегистрироваться. Если регистрироваться лень - вы можете также попробовать скачать релиз по нашим партнерским ссылкам ниже.

[underverse.su].t69555.torrent
Трекер: Зарегистрирован   [ 30.08.2016 16:10 ]  

Статус: проверено (by 90ytr90 at 30.08.2016 18:03)
Поблагодарили: пока никто не поблагодарил...
Тип торрента: публичный - доступные источники с открытых трекеров: 
Размер: 3,4 GB (занимает 0,78 DVDR, для записи нужно 1 болванка DVDR/RW)
 
 

Яндекс.Метрика powered by Sphinx


В Н И М А Н И Е
Сайт не распространяет и не хранит электронные версии произведений, а лишь бесплатно и без коммерческой выгоды (не требуя взамен платы,
SMS и т.д.) предоставляет доступ к создаваемому пользователями каталогу ссылок на торрент-файлы, которые содержат только списки хеш-сумм.
Убедительная просьба с жалобами обращаться напрямую к пользователю, разместившему торрент файл.

Вверх