Loading...
Error

Хетты: Цивилизация, которая изменила Мир / The Hittites: A Civilization That Changed the World (Толга Орнек) [2003 г., документальный, история, постановочный, SatRip] VO

Статистика раздачи
Размер:  718 MB   |    Зарегистрирован:  3 месяца 9 дней   |    Скачан:  8 раз

Полного источника не было: 3 часа

Сидов:  0  |  0 KB/s  ]   Личеров:  0  |  0 KB/s  ]

* - сиды/пиры с внешних источников

   
 
Автор Сообщение

ARI71 Пол:Муж

30-Авг-2016 15:38

Хетты: Цивилизация, которая изменила Мир / The Hittites: A Civilization That Changed the World


Год выпуска: 2003
Жанр: документальный, история, постановочный
Страна: Великобритания
Режиссер: Толга Орнек
Сюжет фильма:
Она была самой могущественной державой своего времени, силой которая крушила армии и поглощала империи. Династия которая разрасталась, чтобы стать первым государством в Малой Азии. Государством, основанном на самой передовой юридической системе своего времени. Цивилизацией, которая формировала связи между Древним Востоком и Западом. Язык, который является самым ранним образцом из всех индо-европейских языков. Цари, побеждавшие фараонов в величайших битвах древности. Гордые мужчины и независимые женщины, которые правили Ближним Востоком. Империя, которая изменила Древний мир.
Качество видео: SatRip

Продолжительность: 01:33:35
Формат: AVI
Видео: XviD, 640x320, 934 kbps
Аудио: русский, одноголосый закадровый [профессиональный], MP3 2.0, 128.00 kbps

Код:

Общее
Полное имя : D:\Hetty.avi
Формат : AVI
Формат/Информация : Audio Video Interleave
Размер файла : 718 Мбайт
Продолжительность : 1 ч. 33 м.
Общий поток : 1072 Кбит/сек
Программа кодирования : VirtualDubMod 1.5.10.2 (build 2540/release)
Библиотека кодирования : VirtualDubMod build 2540/release

Видео
Идентификатор : 0
Формат : MPEG-4 Visual
Профиль формата : Advanced Simple@L5
Параметр BVOP формата : 1
Параметр QPel формата : Нет
Параметр GMC формата : Без точки перехода
Параметр матрицы формата : Выборочная
Идентификатор кодека : XVID
Идентификатор кодека/Подсказка : XviD
Продолжительность : 1 ч. 33 м.
Битрейт : 934 Кбит/сек
Ширина : 640 пикселей
Высота : 320 пикселей
Соотношение сторон : 2,000
Частота кадров : 25,000 кадров/сек
Цветовое пространство : YUV
Субдискретизация насыщенности : 4:2:0
Битовая глубина : 8 бит
Тип развёртки : Прогрессивная
Метод сжатия : С потерями
Бит/(Пиксели*Кадры) : 0.182
Размер потока : 626 Мбайт (87%)
Библиотека кодирования : XviD 1.2.1 (UTC 2008-12-04)

Аудио
Идентификатор : 1
Формат : MPEG Audio
Версия формата : Version 1
Профиль формата : Layer 3
Режим : Joint stereo
Идентификатор кодека : 55
Идентификатор кодека/Подсказка : MP3
Продолжительность : 1 ч. 33 м.
Вид битрейта : Постоянный
Битрейт : 128 Кбит/сек
Каналы : 2 канала
Частота : 48,0 КГц
Метод сжатия : С потерями
Размер потока : 85,7 Мбайт (12%)
Выравнивание : Разделение по промежуткам
Продолжительность промежутка : 40 мс. (1,00 видеокадр)
Время предзагрузки промежутка : 500 мс.
picpicpicpicpic
Для увеличения картинки щелкните мышкой по превью

Этот торрент недоступен для скачивания без регистрации, однако доступен по публичной magnet-ссылке (источники с публичных трекеров). Перед использованием ссылки прочтите, пожалуйста Пользовательское соглашение, а также как можно дольше оставайтесь на раздаче! Для того, чтобы скачать сам торрент-файл (который видит больше источников), а также для того, чтобы поблагодарить релизера, вам необходимо зарегистрироваться. Если регистрироваться лень - вы можете также попробовать скачать релиз по нашим партнерским ссылкам ниже.

[underverse.su].t69551.torrent
Трекер: Зарегистрирован   [ 30.08.2016 15:38 ]  

Статус: проверено (by makkol at 30.08.2016 21:55)
Поблагодарили: пока никто не поблагодарил...
Тип торрента: публичный - доступные источники с открытых трекеров: 
Размер: 718 MB (занимает 0,16 DVDR, для записи нужно 1 болванка DVDR/RW)
 
 

Яндекс.Метрика powered by Sphinx


В Н И М А Н И Е
Сайт не распространяет и не хранит электронные версии произведений, а лишь бесплатно и без коммерческой выгоды (не требуя взамен платы,
SMS и т.д.) предоставляет доступ к создаваемому пользователями каталогу ссылок на торрент-файлы, которые содержат только списки хеш-сумм.
Убедительная просьба с жалобами обращаться напрямую к пользователю, разместившему торрент файл.

Вверх