Loading...
Error

Первый мститель: Противостояние / Captain America: Civil War (Энтони Руссо, Джо Руссо) [2016 г., фантастика, боевик, приключения, HDRip] Dub (iTunes)

Статистика раздачи
Размер:  2,05 GB   |    Зарегистрирован:  3 месяца 8 дней   |    Скачан:  21 раз
Сидов:  2  |  0,1 KB/s  ]   Личеров:  0  |  0 KB/s  ]

* - сиды/пиры с внешних источников

   
 
Автор Сообщение

makkol Пол:Муж

29-Авг-2016 22:24

Первый мститель: Противостояние
Captain America: Civil War
«Разделившись мы падём»

Год выпуска: 2016
Жанр: фантастика, боевик, приключения
Производство: США [Marvel Entertainment, Marvel Studios Inc., Studio Babelsberg]
Режиссер: Энтони Руссо, Джо Руссо
В ролях: Крис Эванс, Роберт Дауни мл., Скарлетт Йоханссон, Себастьян Стэн, Энтони Маки, Дон Чидл, Джереми Реннер, Чэдвик Боузмэн, Пол Беттани, Элизабет Олсен
Сюжет фильма:
Мстители под руководством Капитана Америки оказываются участниками разрушительного инцидента, имеющего международный масштаб. Эти события заставляют правительство задуматься над тем, чтобы начать регулировать действия всех людей с особыми способностями, введя «Акт о регистрации супергероев», вынуждая их раскрыть свои личности и работать на правительственные службы.

Видя в этом законе нарушение гражданских прав и плевок во всё, что он верит, Стив Роджерс открыто восстаёт против нового режима, ведя за собой группу героев, поддерживающих его мнение. В свою же очередь, Тони Старк видит правильность в новом законе, и становится во главе героев, поддерживающих его. Всё это приводит к неизбежному расколу Мстителей, и гражданской войне между двумя сторонами. Сражаясь друг с другом, Старк и Роджерс не знают о том, что таинственный Барон Земо уже строит свои собственные планы, воспользовавшись расколом величайших героев Земли...

  • Мировая премьера: 12 апреля 2016
  • Российская премьера: 5 мая 2016
  • Релиз на DVD и Blu-Ray: 2 августа 2016


Качество видео: HDRip

Продолжительность: 02:26:57
Формат: AVI
Видео: XviD, 720x304 23.976 fps, 23.976 fps, 1518 kbps
Аудио: русский, дублированный (iTunes), AC3 5.1, 48 kHz, 384 kbps

Код:

Формат : AVI
Формат/Информация : Audio Video Interleave
Размер файла : 2,05 Гбайт
Длительность : 2 ч. 27 м.
Общий поток : 1990 Кбит/сек
Программа кодирования : VirtualDubMod 1.5.10.3 | www.virtualdub-fr.org || (build 2550/release)
Библиотека кодирования : VirtualDubMod build 2550/release

Видео
Идентификатор : 0
Формат : MPEG-4 Visual
Профиль формата : Advanced Simple@L5
Параметр BVOP формата : Да
Параметр QPel формата : Нет
Параметр GMC формата : Без точки перехода
Параметр матрицы формата : Default (MPEG)
Идентификатор кодека : XVID
Идентификатор кодека/Подсказка : XviD
Длительность : 2 ч. 27 м.
Битрейт : 1518 Кбит/сек
Ширина : 720 пикселей
Высота : 304 пикселя
Соотношение сторон : 2,35:1
Частота кадров : 23,976 (24000/1001) кадра/сек
Цветовое пространство : YUV
Субдискретизация насыщенности : 4:2:0
Битовая глубина : 8 бит
Тип развёртки : Прогрессивная
Метод сжатия : С потерями
Бит/(Пиксели*Кадры) : 0.289
Размер потока : 1,57 Гбайт (76%)
Библиотека кодирования : XviD 1.2.1 (UTC 2008-12-04)

Аудио
Идентификатор : 1
Формат : AC-3
Формат/Информация : Audio Coding 3
Расширение режима : CM (complete main)
Параметр Endianness формата : Big
Идентификатор кодека : 2000
Длительность : 2 ч. 27 м.
Вид битрейта : Постоянный
Битрейт : 384 Кбит/сек
Каналы : 6 каналов
Расположение каналов : Front: L C R, Side: L R, LFE
Частота : 48,0 КГц
Частота кадров : 31,250 кадров/сек (1536 spf)
Метод сжатия : С потерями
Задержка видео : 800 мс.
Размер потока : 406 Мбайт (19%)
Выравнивание : Разделение по промежуткам
picpicpicpicpic
Для увеличения картинки щелкните мышкой по превью

Этот торрент недоступен для скачивания без регистрации, однако доступен по публичной magnet-ссылке (источники с публичных трекеров). Перед использованием ссылки прочтите, пожалуйста Пользовательское соглашение, а также как можно дольше оставайтесь на раздаче! Для того, чтобы скачать сам торрент-файл (который видит больше источников), а также для того, чтобы поблагодарить релизера, вам необходимо зарегистрироваться. Если регистрироваться лень - вы можете также попробовать скачать релиз по нашим партнерским ссылкам ниже.

[underverse.su].t69529.torrent
Трекер: Зарегистрирован   [ 29.08.2016 22:24 ]  

Статус: T временная (by makkol at 31.08.2016 23:15)
Поблагодарили: пока никто не поблагодарил...
Тип торрента: публичный - доступные источники с открытых трекеров: 
Размер: 2,05 GB (занимает 0,47 DVDR, для записи нужно 1 болванка DVDR/RW)
 
 
Похожие темы
Форум Тема Автор Торрент Отв. Посл. сооб.
Зарубежное кино [DVDRip, Low-Res HDRip, и т.д.] Первый мститель / Captain America: The First Avenger (Джо Джонстон ) [2011 г., фантастика, боевик, триллер, приключения , HDRip] МУХА~
0 | 0

1 | 1079

28

16.10.2011 08:59

Зарубежное кино [DVDRip, Low-Res HDRip, и т.д.] Первый мститель / Captain America: The First Avenger (Джо Джонстон / Joe Johnston) [2011 г., фантастика, боевик, приключения, BDRip] Dub Gaarochi
24 | 0

0 | 1554

50

11.04.2013 18:31

Зарубежное кино [DVDRip, Low-Res HDRip, и т.д.] Первый мститель: Другая война / Captain America: The Winter Soldier (Энтони Руссо, Джо Руссо, Джосс Уидон) [2014 г., фантастика, боевик, приключения, HDRip] Dub [лицензия] Паукан
12 | 0

0 | 1736

135

01.08.2014 07:40

Зарубежное кино [DVDRip, Low-Res HDRip, и т.д.] Первый мститель: Другая война / Captain America: The Winter Soldier (Энтони Руссо, Джо Руссо) [2014 г., фантастика, боевик, приключения, HDRip] Dub [лицензия] Паукан
6 | 1

0 | 1881

174

01.08.2014 07:44

Зарубежное кино [DVDRip, Low-Res HDRip, и т.д.] Первый мститель: Другая война / Captain America: The Winter Soldier (Энтони Руссо / Anthony Russo, Джо Руссо / Joe Russo) [2014 г., фантастика, боевик, приключения, BDRip] Dub 90ytr90
32 | 0

0 | 474

13

31.01.2015 22:15

Зарубежное кино [DVDRip, Low-Res HDRip, и т.д.] Первый мститель: Другая война / Captain America: The Winter Soldier (Энтони Руссо / Anthony Russo, Джо Руссо / Joe Russo) [2014 г., фантастика, боевик, приключения, BDRip] Dub 90ytr90
8 | 0

0 | 491

17

31.01.2015 22:15

Зарубежное кино [DVDRip, Low-Res HDRip, и т.д.] Первый мститель: Другая война / Captain America: The Winter Soldier (Энтони Руссо / Anthony Russo, Джо Руссо / Joe Russo) [2014 г., фантастика, боевик, приключения, BDRip-AVC] Dub + Original (Eng) +... 90ytr90
1 | 0

0 | 497

16

31.01.2015 22:16

T Зарубежное кино [DVDRip, Low-Res HDRip, и т.д.] Первый мститель: Противостояние / Captain America: Civil War (Энтони Руссо / Anthony Russo, Джо Руссо / Joe Russo) [2016 г., фантастика, боевик, триллер, приключения, HDRip] Dub (iTunes) 90ytr90
677 | 18

0 | 570

34

30.08.2016 08:52

T Зарубежное кино [DVDRip, Low-Res HDRip, и т.д.] Первый мститель: Противостояние / Captain America: Civil War (Энтони Руссо / Anthony Russo, Джо Руссо / Joe Russo) [2016 г., фантастика, боевик, триллер, приключения, HDRip] Dub (iTunes) + Original... 90ytr90
47 | 4

0 | 457

15

30.08.2016 19:08

Зарубежное кино HQ Первый мститель: Другая война / Captain America: The Winter Soldier (Энтони Руссо, Джо Руссо) [2014 г., фантастика, боевик, приключения, BDRip] Dub + Original HQ Underverse HQ Underverse
0 | 0

0 | 1330

47

08.08.2014 16:34


Яндекс.Метрика powered by Sphinx


В Н И М А Н И Е
Сайт не распространяет и не хранит электронные версии произведений, а лишь бесплатно и без коммерческой выгоды (не требуя взамен платы,
SMS и т.д.) предоставляет доступ к создаваемому пользователями каталогу ссылок на торрент-файлы, которые содержат только списки хеш-сумм.
Убедительная просьба с жалобами обращаться напрямую к пользователю, разместившему торрент файл.

Вверх