Loading...
Error

Слоны-пигмеи острова Борнео / Borneo's Pygmy Elephants (Джо Кеннеди) [2007 г., документальный, природа, фауна, TVRip] VO

Статистика раздачи
Размер:  619 MB   |    Зарегистрирован:  3 месяца 9 дней   |    Скачан:  1 раз

Полного источника не было: 1 месяц 21 день

Сидов:  0  |  0 KB/s  ]   Личеров:  0  |  0 KB/s  ]

* - сиды/пиры с внешних источников

   
 
Автор Сообщение

ARI71 Пол:Муж

29-Авг-2016 18:30

Слоны-пигмеи острова Борнео / Borneo's Pygmy Elephants


Год выпуска: 2007
Жанр: документальный, природа, фауна
Страна: Нидерланды
Режиссер: Джо Кеннеди
Сюжет фильма:
Об этих необычных слонах было почти ничего неизвестно. Их обнаружили недавно на тропическом острове Борнео. По мнению ученых, они живут здесь более трехсот тысяч лет. Но сейчас слоны-пигмеи на грани вымирания. Начинается борьба за их спасение.
Качество видео: TVRip

Продолжительность: 00:53:12
Формат: AVI
Видео: XviD, 512x384, 1490 kbps
Аудио: русский, одноголосый (профессиональный), MP3 2.0, 32.00 kbps

Код:

Общее
Полное имя : D:\Diskovery Слоны-пигмеи острова Борнео.(2007)_xvid.avi
Формат : AVI
Формат/Информация : Audio Video Interleave
Размер файла : 619 Мбайт
Продолжительность : 53 м.
Общий поток : 1627 Кбит/сек
Программа кодирования : MEncoder Sherpya-SVN-r32492-4.2.5
Библиотека кодирования : MPlayer

Видео
Идентификатор : 0
Формат : MPEG-4 Visual
Профиль формата : Simple@L3
Параметр BVOP формата : Нет
Параметр QPel формата : Нет
Параметр GMC формата : Без точки перехода
Параметр матрицы формата : Default (H.263)
Идентификатор кодека : XVID
Идентификатор кодека/Подсказка : XviD
Продолжительность : 53 м.
Битрейт : 1490 Кбит/сек
Ширина : 512 пикселей
Высота : 384 пикселя
Соотношение сторон : 4:3
Частота кадров : 25,000 кадров/сек
Цветовое пространство : YUV
Субдискретизация насыщенности : 4:2:0
Битовая глубина : 8 бит
Тип развёртки : Прогрессивная
Метод сжатия : С потерями
Бит/(Пиксели*Кадры) : 0.303
Размер потока : 567 Мбайт (92%)
Библиотека кодирования : XviD 1.2.1 (UTC 2008-12-04)

Аудио
Идентификатор : 1
Формат : MPEG Audio
Версия формата : Version 1
Профиль формата : Layer 3
Режим : Joint stereo
Расширение режима : MS Stereo
Идентификатор кодека : 55
Идентификатор кодека/Подсказка : MP3
Продолжительность : 53 м.
Вид битрейта : Постоянный
Битрейт : 32,0 Кбит/сек
Каналы : 2 канала
Частота : 44,1 КГц
Метод сжатия : С потерями
Размер потока : 47,4 Мбайт (8%)
Выравнивание : Соединение по промежуткам
Продолжительность промежутка : 26 мс. (0,65 видеокадр)
Время предзагрузки промежутка : 133 мс.
Библиотека кодирования : LAME3.98.4
picpicpicpicpic
Для увеличения картинки щелкните мышкой по превью

Этот торрент недоступен для скачивания без регистрации, однако доступен по публичной magnet-ссылке (источники с публичных трекеров). Перед использованием ссылки прочтите, пожалуйста Пользовательское соглашение, а также как можно дольше оставайтесь на раздаче! Для того, чтобы скачать сам торрент-файл (который видит больше источников), а также для того, чтобы поблагодарить релизера, вам необходимо зарегистрироваться. Если регистрироваться лень - вы можете также попробовать скачать релиз по нашим партнерским ссылкам ниже.

[underverse.su].t69522.torrent
Трекер: Зарегистрирован   [ 29.08.2016 18:30 ]  

Статус: проверено (by makkol at 30.08.2016 21:53)
Поблагодарили: пока никто не поблагодарил...
Тип торрента: публичный - доступные источники с открытых трекеров: 
Размер: 619 MB (занимает 0,14 DVDR, для записи нужно 1 болванка DVDR/RW)
 
 

Яндекс.Метрика powered by Sphinx


В Н И М А Н И Е
Сайт не распространяет и не хранит электронные версии произведений, а лишь бесплатно и без коммерческой выгоды (не требуя взамен платы,
SMS и т.д.) предоставляет доступ к создаваемому пользователями каталогу ссылок на торрент-файлы, которые содержат только списки хеш-сумм.
Убедительная просьба с жалобами обращаться напрямую к пользователю, разместившему торрент файл.

Вверх