Loading...
Error

Звезды эфира. Александр Бовин (Олег Иваненко) [2004 г., документальный, биография, TVRip]

Статистика раздачи
Размер:  392 MB   |    Зарегистрирован:  3 месяца 11 дней   |    Скачан:  0 раз

Полного источника не было: Никогда

Сидов:  0  |  0 KB/s  ]   Личеров:  0  |  0 KB/s  ]

* - сиды/пиры с внешних источников

   
 
Автор Сообщение

ARI71 Пол:Муж

29-Авг-2016 18:12

Звезды эфира. Александр Бовин


Год выпуска: 2004
Жанр: документальный, биография
Страна: Россия Первый канал
Режиссер: Олег Иваненко
Текст читает: Сергей Смирнов
Сюжет фильма:
Александр Евгеньевич Бо́вин (9 августа 1930, Ленинград — 29 апреля 2004, Москва) — советский и российский журналист, публицист, политолог и дипломат. Кандидат философских наук (1967). Лауреат Государственной премии СССР (1981).
Был ведущим еженедельной телевизионной программы «Международная панорама», политическим обозревателем газеты «Известия». С 1991 по 1997 был послом СССР (позже — России) в Израиле.
Качество видео: TVRip

Продолжительность: 00:25:39
Формат: AVI
Видео: XviD, 720x480, 1998 kbps
Аудио: русский, (оригинал), MP3 2.0, 123.00 kbps

Код:

Общее
Полное имя : D:\Aleksandr Bovin. Zvezdy efira (2004)_xvid.avi
Формат : AVI
Формат/Информация : Audio Video Interleave
Размер файла : 392 Мбайт
Продолжительность : 25 м.
Режим общего битрейта : Переменный
Общий поток : 2134 Кбит/сек
Программа кодирования : MEncoder Sherpya-SVN-r32492-4.2.5
Библиотека кодирования : MPlayer

Видео
Идентификатор : 0
Формат : MPEG-4 Visual
Профиль формата : Simple@L3
Параметр BVOP формата : Нет
Параметр QPel формата : Нет
Параметр GMC формата : Без точки перехода
Параметр матрицы формата : Default (H.263)
Идентификатор кодека : XVID
Идентификатор кодека/Подсказка : XviD
Продолжительность : 25 м.
Битрейт : 1998 Кбит/сек
Ширина : 720 пикселей
Высота : 480 пикселей
Соотношение сторон : 3:2
Частота кадров : 25,000 кадров/сек
Цветовое пространство : YUV
Субдискретизация насыщенности : 4:2:0
Битовая глубина : 8 бит
Тип развёртки : Прогрессивная
Метод сжатия : С потерями
Бит/(Пиксели*Кадры) : 0.231
Размер потока : 367 Мбайт (94%)
Библиотека кодирования : XviD 1.2.1 (UTC 2008-12-04)

Аудио
Идентификатор : 1
Формат : MPEG Audio
Версия формата : Version 1
Профиль формата : Layer 3
Режим : Joint stereo
Расширение режима : MS Stereo
Идентификатор кодека : 55
Идентификатор кодека/Подсказка : MP3
Продолжительность : 25 м.
Вид битрейта : Переменный
Битрейт : 123 Кбит/сек
Каналы : 2 канала
Частота : 48,0 КГц
Метод сжатия : С потерями
Размер потока : 22,5 Мбайт (6%)
Выравнивание : Соединение по промежуткам
Продолжительность промежутка : 24 мс. (0,60 видеокадр)
Время предзагрузки промежутка : 512 мс.
picpicpicpic
Для увеличения картинки щелкните мышкой по превью

Этот торрент недоступен для скачивания без регистрации, однако доступен по публичной magnet-ссылке (источники с публичных трекеров). Перед использованием ссылки прочтите, пожалуйста Пользовательское соглашение, а также как можно дольше оставайтесь на раздаче! Для того, чтобы скачать сам торрент-файл (который видит больше источников), а также для того, чтобы поблагодарить релизера, вам необходимо зарегистрироваться. Если регистрироваться лень - вы можете также попробовать скачать релиз по нашим партнерским ссылкам ниже.

[underverse.su].t69521.torrent
Трекер: Зарегистрирован   [ 29.08.2016 18:12 ]  

Статус: проверено (by makkol at 30.08.2016 21:50)
Поблагодарили: пока никто не поблагодарил...
Тип торрента: публичный - доступные источники с открытых трекеров: 
Размер: 392 MB (занимает 0,09 DVDR, для записи нужно 1 болванка DVDR/RW)
 
 
Похожие темы
Форум Тема Автор Торрент Отв. Посл. сооб.
Личности Звезды эфира: Маврикиевна и Никитична (Георгий Ананов) [2004 г., документальный, биография, искусство, SatRip] ARI71
3 | 0

1 | 272

1

21.11.2016 18:26

Личности Звезды эфира. Николай Озеров (Олег Иваненко) [2004 г., документальный, биография, SatRip] ARI71
0 | 0

0 | 281

3

27.08.2016 12:12

Личности Звезды эфира. Юрий Сенкевич (Олег Иваненко) [2004 г., документальный, биография, SatRip] ARI71
0 | 0

0 | 262

1

27.08.2016 12:29

Личности Звезды эфира. Николай Дроздов (Олег Иваненко) [2005 г., документальный, биография, SatRip] ARI71
0 | 0

0 | 398

0

28.08.2016 08:49

Личности Звезды эфира. Зиновий Гердт (Олег Иваненко) [2005 г., документальный, биография, SatRip] ARI71
1 | 0

0 | 271

1

28.08.2016 09:02

Личности Звезды эфира. Сергей Супонев (Олег Иваненко) [2005 г., документальный, биография, SatRip] ARI71
0 | 1

0 | 185

0

29.08.2016 18:00

Личности Звезды эфира. Александр Иванов (Олег Иваненко) [2004 г., документальный, биография, VHSRip] ARI71
5 | 0

0 | 408

0

31.08.2016 19:38


Яндекс.Метрика powered by Sphinx


В Н И М А Н И Е
Сайт не распространяет и не хранит электронные версии произведений, а лишь бесплатно и без коммерческой выгоды (не требуя взамен платы,
SMS и т.д.) предоставляет доступ к создаваемому пользователями каталогу ссылок на торрент-файлы, которые содержат только списки хеш-сумм.
Убедительная просьба с жалобами обращаться напрямую к пользователю, разместившему торрент файл.

Вверх