Loading...
Error

Звезды эфира. Сергей Супонев (Олег Иваненко) [2005 г., документальный, биография, SatRip]

Статистика раздачи
Размер:  376 MB   |    Зарегистрирован:  3 месяца 11 дней   |    Скачан:  0 раз

Полного источника не было: Никогда

Сидов:  0  |  0 KB/s  ]   Личеров:  0  |  0 KB/s  ]

* - сиды/пиры с внешних источников

   
 
Автор Сообщение

ARI71 Пол:Муж

29-Авг-2016 18:00

Звезды эфира. Сергей Супонев


Год выпуска: 2005
Жанр: документальный, биография
Страна: Россия ОАО "1 канал"
Режиссер: Олег Иваненко
Текст читает: Сергей Чонишвили
Сюжет фильма:
Фильм знакомит зрителя с малоизвестными фактами из жизни советского и российского телеведущего, руководителя дирекции детских программ ОРТ Сергея Супонева.
В советские времена не существовало понятия «звезда», не было глянцевых журналов и рубрик о светской жизни. О том, что происходило с популярными ведущими радио и телевидения за кадром, зрители могли только догадываться...

Серге́й Евге́ньевич Супо́нев (28 января 1963, Хотьково, Московская область, СССР — 8 декабря 2001, Едимоново, Тверская область) — советский и российский телеведущий, руководитель дирекции детских программ ОРТ (1997—2001)
Качество видео: SatRip

Продолжительность: 00:25:38
Формат: AVI
Видео: DivX 5, 704x528, 1846 kbps
Аудио: русский, (оригинал), MP3 2.0, 192.00 kbps

Код:

Общее
Полное имя : D:\Zvezdy.efira.Suponev.SATRip.avi
Формат : AVI
Формат/Информация : Audio Video Interleave
Размер файла : 376 Мбайт
Продолжительность : 25 м.
Общий поток : 2047 Кбит/сек
Программа кодирования : Axara Ltd.
Библиотека кодирования : VirtualDub build 32661/release

Видео
Идентификатор : 0
Формат : MPEG-4 Visual
Параметр BVOP формата : Нет
Параметр QPel формата : Нет
Параметр GMC формата : Без точки перехода
Параметр матрицы формата : Default (H.263)
Идентификатор кодека : DX50
Идентификатор кодека/Подсказка : DivX 5
Продолжительность : 25 м.
Битрейт : 1846 Кбит/сек
Ширина : 704 пикселя
Высота : 528 пикселей
Соотношение сторон : 4:3
Частота кадров : 25,000 кадров/сек
Цветовое пространство : YUV
Субдискретизация насыщенности : 4:2:0
Битовая глубина : 8 бит
Тип развёртки : Прогрессивная
Метод сжатия : С потерями
Бит/(Пиксели*Кадры) : 0.199
Размер потока : 339 Мбайт (90%)
Библиотека кодирования : DivX 5.0.5 (UTC 2003-04-24)

Аудио
Идентификатор : 1
Формат : MPEG Audio
Версия формата : Version 1
Профиль формата : Layer 3
Режим : Joint stereo
Идентификатор кодека : 55
Идентификатор кодека/Подсказка : MP3
Продолжительность : 25 м.
Вид битрейта : Постоянный
Битрейт : 192 Кбит/сек
Каналы : 2 канала
Частота : 48,0 КГц
Метод сжатия : С потерями
Размер потока : 35,2 Мбайт (9%)
Выравнивание : Разделение по промежуткам
Продолжительность промежутка : 40 мс. (1,00 видеокадр)
Время предзагрузки промежутка : 500 мс.
picpicpicpicpic
Для увеличения картинки щелкните мышкой по превью

Этот торрент недоступен для скачивания без регистрации, однако доступен по публичной magnet-ссылке (источники с публичных трекеров). Перед использованием ссылки прочтите, пожалуйста Пользовательское соглашение, а также как можно дольше оставайтесь на раздаче! Для того, чтобы скачать сам торрент-файл (который видит больше источников), а также для того, чтобы поблагодарить релизера, вам необходимо зарегистрироваться. Если регистрироваться лень - вы можете также попробовать скачать релиз по нашим партнерским ссылкам ниже.

[underverse.su].t69520.torrent
Трекер: Зарегистрирован   [ 29.08.2016 18:00 ]  

Статус: проверено (by makkol at 30.08.2016 21:47)
Поблагодарили: пока никто не поблагодарил...
Тип торрента: публичный - доступные источники с открытых трекеров: 
Размер: 376 MB (занимает 0,08 DVDR, для записи нужно 1 болванка DVDR/RW)
 
 
Похожие темы
Форум Тема Автор Торрент Отв. Посл. сооб.
Личности Звезды эфира: Маврикиевна и Никитична (Георгий Ананов) [2004 г., документальный, биография, искусство, SatRip] ARI71
3 | 0

1 | 272

1

21.11.2016 18:26

Личности Звезды эфира. Николай Озеров (Олег Иваненко) [2004 г., документальный, биография, SatRip] ARI71
0 | 0

0 | 282

3

27.08.2016 12:12

Личности Звезды эфира. Юрий Сенкевич (Олег Иваненко) [2004 г., документальный, биография, SatRip] ARI71
0 | 0

0 | 262

1

27.08.2016 12:29

Личности Звезды эфира. Николай Дроздов (Олег Иваненко) [2005 г., документальный, биография, SatRip] ARI71
0 | 0

0 | 398

0

28.08.2016 08:49

Личности Звезды эфира. Зиновий Гердт (Олег Иваненко) [2005 г., документальный, биография, SatRip] ARI71
1 | 0

0 | 271

1

28.08.2016 09:02

Личности Звезды эфира. Александр Бовин (Олег Иваненко) [2004 г., документальный, биография, TVRip] ARI71
0 | 0

0 | 171

0

29.08.2016 18:12

Личности Звезды эфира. Александр Иванов (Олег Иваненко) [2004 г., документальный, биография, VHSRip] ARI71
5 | 0

0 | 408

0

31.08.2016 19:38


Яндекс.Метрика powered by Sphinx


В Н И М А Н И Е
Сайт не распространяет и не хранит электронные версии произведений, а лишь бесплатно и без коммерческой выгоды (не требуя взамен платы,
SMS и т.д.) предоставляет доступ к создаваемому пользователями каталогу ссылок на торрент-файлы, которые содержат только списки хеш-сумм.
Убедительная просьба с жалобами обращаться напрямую к пользователю, разместившему торрент файл.

Вверх