Loading...
Error

Дельфины: тест на интеллект / Dolphins: Beauty Before Brains? (Бренда Спаан) [2011 г., документальный, познавательный, исследование, фауна, HDTVRip 720p] Dub

Статистика раздачи
Размер:  1,44 GB   |    Зарегистрирован:  3 месяца 7 дней   |    Скачан:  1 раз

Полного источника не было: 2 месяца 18 дней

Сидов:  0  |  0 KB/s  ]   Личеров:  0  |  0 KB/s  ]

* - сиды/пиры с внешних источников

   
 
Автор Сообщение

ARI71 Пол:Муж

28-Авг-2016 17:39

Дельфины: тест на интеллект / Dolphins: Beauty Before Brains?


Год выпуска: 2011
Жанр: документальный, познавательный, исследование, фауна
Страна: ЮАР Earth-Touch (Pty) Ltd
Режиссер: Бренда Спаан
Сюжет фильма:
Дельфины всегда были загадкой для человека. О них складывали множество легенд. Эти милые и дружелюбные создания веками вдохновляли и очаровывали нас, они успели завоевать доверие людей и репутацию одного из самых высокоразвитых млекопитающих. Но умны ли дельфины на самом деле? Если уровень интеллекта определяется способностями анализировать, планировать, решать задачи и учиться на собственном опыте, то какое место занимают дельфины в своем развитии?
Качество видео: HDTVRip 720p

Продолжительность: 00:49:00
Формат: MKV
Видео: AVC (x264), 1280x720, 4000 kbps
Аудио: русский, (дублированный), AC3 2.0, 192.00 kbps

Код:

Общее
Уникальный идентификатор : 193541620815874133500459073144050081367 (0x919AC2A31DB493DE8BAB7AFA7776DE57)
Полное имя : D:\Dolphins. Beauty Before Brains.mkv
Формат : Matroska
Версия формата : Version 4 / Version 2
Размер файла : 1,44 Гбайт
Продолжительность : 49 м.
Общий поток : 4196 Кбит/сек
Дата кодирования : UTC 2015-07-02 17:14:53
Программа кодирования : mkvmerge v8.0.0 ('Til The Day That I Die') 64bit
Библиотека кодирования : libebml v1.3.1 + libmatroska v1.4.2

Видео
Идентификатор : 1
Формат : AVC
Формат/Информация : Advanced Video Codec
Профиль формата : High@L4
Параметр CABAC формата : Да
Параметр ReFrames формата : 6 кадров
Идентификатор кодека : V_MPEG4/ISO/AVC
Продолжительность : 49 м.
Битрейт : 4000 Кбит/сек
Ширина : 1280 пикселей
Высота : 720 пикселей
Соотношение сторон : 16:9
Режим частоты кадров : Постоянный
Частота кадров : 50,000 кадров/сек
Цветовое пространство : YUV
Субдискретизация насыщенности : 4:2:0
Битовая глубина : 8 бит
Тип развёртки : Прогрессивная
Бит/(Пиксели*Кадры) : 0.087
Размер потока : 1,37 Гбайт (95%)
Библиотека кодирования : x264 core 146 r2538 121396c
Настройки программы : cabac=1 / ref=6 / deblock=1:0:0 / analyse=0x3:0x113 / me=umh / subme=9 / psy=1 / psy_rd=1.00:0.00 / mixed_ref=1 / me_range=24 / chroma_me=1 / trellis=2 / 8x8dct=1 / cqm=0 / deadzone=21,11 / fast_pskip=1 / chroma_qp_offset=-2 / threads=12 / lookahead_threads=1 / sliced_threads=0 / nr=0 / decimate=1 / interlaced=0 / bluray_compat=0 / constrained_intra=0 / bframes=6 / b_pyramid=2 / b_adapt=2 / b_bias=0 / direct=3 / weightb=1 / open_gop=0 / weightp=2 / keyint=500 / keyint_min=50 / scenecut=40 / intra_refresh=0 / rc_lookahead=40 / rc=2pass / mbtree=1 / bitrate=4000 / ratetol=1.0 / qcomp=0.60 / qpmin=0 / qpmax=69 / qpstep=4 / cplxblur=20.0 / qblur=0.5 / ip_ratio=1.40 / aq=1:1.00
Default : Да
Forced : Нет

Аудио
Идентификатор : 2
Формат : AC-3
Формат/Информация : Audio Coding 3
Расширение режима : CM (complete main)
Параметр Endianness формата : Big
Идентификатор кодека : A_AC3
Продолжительность : 48 м.
Вид битрейта : Постоянный
Битрейт : 192 Кбит/сек
Каналы : 2 канала
Расположение каналов : Front: L R
Частота : 48,0 КГц
Частота кадров : 31,250 кадров/сек (1536 spf)
Метод сжатия : С потерями
Размер потока : 67,3 Мбайт (5%)
Язык : Russian
Default : Да
Forced : Нет
Раздача от - yhwhyhwh
Автор постера - Fандорин

Документальный дубляж - "SDI Media"
Голос рассказчика - полный дубляж
Интервью - слышна оригинальная речь

Перевод - Алисы Хазиной, текст читает - Виктория Бабанова
picpicpicpicpic
Для увеличения картинки щелкните мышкой по превью

Этот торрент недоступен для скачивания без регистрации, однако доступен по публичной magnet-ссылке (источники с публичных трекеров). Перед использованием ссылки прочтите, пожалуйста Пользовательское соглашение, а также как можно дольше оставайтесь на раздаче! Для того, чтобы скачать сам торрент-файл (который видит больше источников), а также для того, чтобы поблагодарить релизера, вам необходимо зарегистрироваться. Если регистрироваться лень - вы можете также попробовать скачать релиз по нашим партнерским ссылкам ниже.

[underverse.su].t69505.torrent
Трекер: Зарегистрирован   [ 28.08.2016 17:39 ]  

Статус: проверено (by makkol at 28.08.2016 23:40)
Поблагодарили: пока никто не поблагодарил...
Тип торрента: публичный - доступные источники с открытых трекеров: 
Размер: 1,44 GB (занимает 0,33 DVDR, для записи нужно 1 болванка DVDR/RW)
 
 

Яндекс.Метрика powered by Sphinx


В Н И М А Н И Е
Сайт не распространяет и не хранит электронные версии произведений, а лишь бесплатно и без коммерческой выгоды (не требуя взамен платы,
SMS и т.д.) предоставляет доступ к создаваемому пользователями каталогу ссылок на торрент-файлы, которые содержат только списки хеш-сумм.
Убедительная просьба с жалобами обращаться напрямую к пользователю, разместившему торрент файл.

Вверх