Loading...
Error

1715: Смерть "Короля-Солнца" / La Mort de Louis XIV (1715: The Sun King is Dead) / (Сильви Февле) [2015 г., документальный, история, игровой, SatRip] Dub

Статистика раздачи
Размер:  742 MB   |    Зарегистрирован:  3 месяца 5 дней   |    Скачан:  3 раза

Полного источника не было: 2 месяца 11 дней

Сидов:  0  |  0 KB/s  ]   Личеров:  0  |  0 KB/s  ]

* - сиды/пиры с внешних источников

   
 
Автор Сообщение

ARI71 Пол:Муж

28-Авг-2016 16:53

1715: Смерть "Короля-Солнца" / La Mort de Louis XIV (1715: The Sun King is Dead)


Год выпуска: 2015
Жанр: документальный, история, игровой
Страна: Франция ZED and France Télévisions
Режиссер: Сильви Февле
Сюжет фильма:
Людовик XIV де Бурбон, получивший при рождении имя Луи - Дьёдонне, также известный как "Король-Солнце", также Людовик Великий, - король Франции и Наварры с 14 мая 1643 г. Правление Людовика XIV было самым долгим в истории. Его современники думали, что Король-Солнце не умрет никогда. Но летом 1715 года монарх умер от гангрены в возрасте 76 лет в своем архитектурном шедевре – Версальском дворце. Его агония длилась 23 дня, обнаружив некомпетентность лекарей, дворцовые интриги и ревность. Король-Солнце превратил свой уход из жизни в великолепное шоу, представленное публике. Фильм, снятый в Версале, соборе Нотр-Дам и в базилике Сен-Дени – дань уважения самому легендарному из королей Франции.
Качество видео: SatRip

Продолжительность: 00:51:56
Формат: AVI
Видео: XviD, 720x400, 1798 kbps
Аудио: русский, (дублированный), AC3 2.0, 192.00 kbps

Код:

Общее
Полное имя : D:\1715_The Sun King is Dead.avi
Формат : AVI
Формат/Информация : Audio Video Interleave
Размер файла : 742 Мбайт
Продолжительность : 51 м.
Общий поток : 1997 Кбит/сек
Программа кодирования : TMPGEnc Video Mastering Works 6 Trial with Movie Plug-in Version. 6.1.5.26
Библиотека кодирования : TMPGEnc Video Mastering Works 6 Trial with Movie Plug-in Version. 6.1.5.26

Видео
Идентификатор : 0
Формат : MPEG-4 Visual
Профиль формата : Advanced Simple@L5
Параметр BVOP формата : 2
Параметр QPel формата : Нет
Параметр GMC формата : Без точки перехода
Параметр матрицы формата : Default (H.263)
Режим смешивания : Сжатый битовый поток
Идентификатор кодека : XVID
Идентификатор кодека/Подсказка : XviD
Продолжительность : 51 м.
Битрейт : 1798 Кбит/сек
Ширина : 720 пикселей
Высота : 400 пикселей
Соотношение сторон : 16:9
Частота кадров : 25,000 кадров/сек
Цветовое пространство : YUV
Субдискретизация насыщенности : 4:2:0
Битовая глубина : 8 бит
Тип развёртки : Прогрессивная
Метод сжатия : С потерями
Бит/(Пиксели*Кадры) : 0.250
Размер потока : 668 Мбайт (90%)
Библиотека кодирования : XviD 73

Аудио
Идентификатор : 1
Формат : AC-3
Формат/Информация : Audio Coding 3
Расширение режима : CM (complete main)
Параметр Endianness формата : Big
Идентификатор кодека : 2000
Продолжительность : 51 м.
Вид битрейта : Постоянный
Битрейт : 192 Кбит/сек
Каналы : 2 канала
Расположение каналов : Front: L R
Частота : 48,0 КГц
Частота кадров : 31,250 кадров/сек (1536 spf)
Метод сжатия : С потерями
Размер потока : 71,3 Мбайт (10%)
Выравнивание : Соединение по промежуткам
Продолжительность промежутка : 333 мс. (8,34 видеокадров)
Автор Rip'а: skorpionN

Документальный дубляж - "Видеофильм ТВ"
Голос рассказчика - полный дубляж
Интервью - слышна оригинальная речь
picpicpicpicpic
Для увеличения картинки щелкните мышкой по превью

Этот торрент недоступен для скачивания без регистрации, однако доступен по публичной magnet-ссылке (источники с публичных трекеров). Перед использованием ссылки прочтите, пожалуйста Пользовательское соглашение, а также как можно дольше оставайтесь на раздаче! Для того, чтобы скачать сам торрент-файл (который видит больше источников), а также для того, чтобы поблагодарить релизера, вам необходимо зарегистрироваться. Если регистрироваться лень - вы можете также попробовать скачать релиз по нашим партнерским ссылкам ниже.

[underverse.su].t69504.torrent
Трекер: Зарегистрирован   [ 28.08.2016 16:53 ]  

Статус: проверено (by makkol at 28.08.2016 23:39)
Поблагодарили: пока никто не поблагодарил...
Тип торрента: публичный - доступные источники с открытых трекеров: 
Размер: 742 MB (занимает 0,17 DVDR, для записи нужно 1 болванка DVDR/RW)
 
 

Яндекс.Метрика powered by Sphinx


В Н И М А Н И Е
Сайт не распространяет и не хранит электронные версии произведений, а лишь бесплатно и без коммерческой выгоды (не требуя взамен платы,
SMS и т.д.) предоставляет доступ к создаваемому пользователями каталогу ссылок на торрент-файлы, которые содержат только списки хеш-сумм.
Убедительная просьба с жалобами обращаться напрямую к пользователю, разместившему торрент файл.

Вверх