Loading...
Error

Империя царей: Россия при Романовых с Люси Уорсли / Empire Of The Tsars: Romanov Russia With Lucy Worsley (1-3 серии из 3) / (Джон Дас) [2016 г., документальный, история, исследования, HDTVRip 720p] VO + Original (Eng)

Статистика раздачи
Размер:  5,38 GB   |    Зарегистрирован:  3 месяца 12 дней   |    Скачан:  6 раз

Полного источника не было: 1 день 7 часов

Сидов:  0  |  0 KB/s  ]   Личеров:  0  |  0 KB/s  ]

* - сиды/пиры с внешних источников

   
 
Автор Сообщение

ARI71 Пол:Муж

28-Авг-2016 10:56

Империя царей: Россия при Романовых с Люси Уорсли / Empire Of The Tsars: Romanov Russia With Lucy Worsley (1-3 серии из 3)


Год выпуска: 2016
Жанр: документальный, история, исследования
Страна: Великобритания BBC, Art Production Bristol
Режиссер: Джон Дас
Ведущая: Люси Уорсли
Сюжет фильма:
Люси Уорсли отправляется к истокам рода Романовых, династии, которая правила Россией больше трёх столетий. Она расскажет нам о таких неординарных личностях, как Пётр Великий, превративший страну в империю, Екатерина Великая, дочь немецкого принца, которая стала самой могущественной женщиной в мире, и последний царь Николай II, любящий отец и муж, спровоцировавший революцию. Это история выдающейся семьи, с которой связано множество слухов, предательств, скандалов и убийств.
Качество видео: HDTVRip 720p

Продолжительность: 3 x ~ 00:58:25
Формат: MKV
Видео: AVC (x264), 1280x720, ~4000 kbps
Аудио #1: русский, одноголосый (профессиональный), AC3 2.0, 192.00 kbps
Аудио #2: английский, (оригинал), AC3 2.0, 192.00 kbps
(тех. данные всех серий идентичны)

Код:

Общее
Уникальный идентификатор : 225968761644270838637894468056765667073 (0xAA00001DCC450EB4A58C40C354079701)
Полное имя : D:\Empire Of The Tsars Romanov Russia_720p\01_Reinventing Russia.mkv
Формат : Matroska
Версия формата : Version 4 / Version 2
Размер файла : 1,79 Гбайт
Продолжительность : 58 м.
Режим общего битрейта : Переменный
Общий поток : 4386 Кбит/сек
Дата кодирования : UTC 2016-08-12 09:27:48
Программа кодирования : mkvmerge v6.9.1 ('Blue Panther') 64bit built on Apr 18 2014 18:23:38
Библиотека кодирования : libebml v1.3.0 + libmatroska v1.4.1

Видео
Идентификатор : 1
Формат : AVC
Формат/Информация : Advanced Video Codec
Профиль формата : High@L4.1
Параметр CABAC формата : Да
Параметр ReFrames формата : 9 кадров
Идентификатор кодека : V_MPEG4/ISO/AVC
Продолжительность : 58 м.
Вид битрейта : Переменный
Битрейт : 4000 Кбит/сек
Максимальный битрейт : 18,4 Мбит/сек
Ширина : 1280 пикселей
Высота : 720 пикселей
Соотношение сторон : 16:9
Режим частоты кадров : Постоянный
Частота кадров : 25,000 кадров/сек
Стандарт вещания : Component
Цветовое пространство : YUV
Субдискретизация насыщенности : 4:2:0
Битовая глубина : 8 бит
Тип развёртки : Прогрессивная
Бит/(Пиксели*Кадры) : 0.174
Размер потока : 1,60 Гбайт (89%)
Библиотека кодирования : x264 core 144
Настройки программы : cabac=1 / ref=9 / deblock=1:0:0 / analyse=0x3:0x113 / me=hex / subme=7 / psy=1 / psy_rd=1.00:0.00 / mixed_ref=1 / me_range=16 / chroma_me=1 / trellis=1 / 8x8dct=1 / cqm=1 / deadzone=21,11 / fast_pskip=1 / chroma_qp_offset=-2 / threads=6 / lookahead_threads=1 / sliced_threads=0 / slices=1 / nr=0 / decimate=1 / interlaced=0 / minigop=0 / stitchable=1 / constrained_intra=0 / bframes=3 / b_pyramid=0 / b_adapt=1 / b_bias=0 / direct=1 / weightb=1 / open_gop=1 / weightp=2 / keyint=250 / keyint_min=25 / scenecut=40 / intra_refresh=0 / rc_lookahead=40 / rc=2pass / mbtree=1 / bitrate=4000 / ratetol=1.0 / qcomp=0.60 / qpmin=3 / qpmax=69 / qpstep=4 / cplxblur=20.0 / qblur=0.5 / vbv_maxrate=18400 / vbv_bufsize=18400 / nal_hrd=vbr / filler=0 / ip_ratio=1.40 / aq=1:1.00
Default : Да
Forced : Нет
Цветовой диапазон : Limited
Основные цвета : BT.709
Характеристики трансфера : BT.709
Коэффициенты матрицы : BT.709

Аудио #1
Идентификатор : 2
Формат : AC-3
Формат/Информация : Audio Coding 3
Расширение режима : CM (complete main)
Параметр Endianness формата : Big
Идентификатор кодека : A_AC3
Продолжительность : 58 м.
Вид битрейта : Постоянный
Битрейт : 192 Кбит/сек
Каналы : 2 канала
Расположение каналов : Front: L R
Частота : 48,0 КГц
Частота кадров : 31,250 кадров/сек (1536 spf)
Метод сжатия : С потерями
Размер потока : 80,2 Мбайт (4%)
Язык : Russian
Default : Да
Forced : Нет

Аудио #2
Идентификатор : 3
Формат : AC-3
Формат/Информация : Audio Coding 3
Расширение режима : CM (complete main)
Параметр Endianness формата : Big
Идентификатор кодека : A_AC3
Продолжительность : 58 м.
Вид битрейта : Постоянный
Битрейт : 192 Кбит/сек
Каналы : 2 канала
Расположение каналов : Front: L R
Частота : 48,0 КГц
Частота кадров : 31,250 кадров/сек (1536 spf)
Метод сжатия : С потерями
Размер потока : 80,2 Мбайт (4%)
Язык : English
Default : Нет
Forced : Да
01. Реформация России (От Руси к России) / Reinventing Russia
Доктор Люси Уорсли углубляется в мир начала династии Романовых, чьё правление берёт истоки от 16-летнего Михаила Романова до Петра Великого, который решил реформировать и модернизировать Россию.

02. Эпоха крайностей / Age of Extremes
Доктор Люси Уорсли расскажет о правлении Екатерины Великой, получившей трон от мужа, Петра III, и о конфликте с наполеоновской Францией.

03. На пути к революции / The Road to Revolution
Насколько кровавыми были последние годы династии? В этой серии доктор Люси Уорсли расскажет нам о терроре, убийствах и революции, которые оборвали правление династии Романовых.
picpicpicpicpic
Для увеличения картинки щелкните мышкой по превью

Этот торрент недоступен для скачивания без регистрации, однако доступен по публичной magnet-ссылке (источники с публичных трекеров). Перед использованием ссылки прочтите, пожалуйста Пользовательское соглашение, а также как можно дольше оставайтесь на раздаче! Для того, чтобы скачать сам торрент-файл (который видит больше источников), а также для того, чтобы поблагодарить релизера, вам необходимо зарегистрироваться. Если регистрироваться лень - вы можете также попробовать скачать релиз по нашим партнерским ссылкам ниже.

[underverse.su].t69496.torrent
Трекер: Зарегистрирован   [ 28.08.2016 10:56 ]  

Статус: проверено (by makkol at 28.08.2016 11:28)
Поблагодарили: пока никто не поблагодарил...
Тип торрента: публичный - доступные источники с открытых трекеров: 
Размер: 5,38 GB (занимает 1,23 DVDR, для записи нужно 2 болванки DVDR/RW)
 
 

Яндекс.Метрика powered by Sphinx


В Н И М А Н И Е
Сайт не распространяет и не хранит электронные версии произведений, а лишь бесплатно и без коммерческой выгоды (не требуя взамен платы,
SMS и т.д.) предоставляет доступ к создаваемому пользователями каталогу ссылок на торрент-файлы, которые содержат только списки хеш-сумм.
Убедительная просьба с жалобами обращаться напрямую к пользователю, разместившему торрент файл.

Вверх