Loading...
Error

Звезды эфира. Зиновий Гердт (Олег Иваненко) [2005 г., документальный, биография, SatRip]

Статистика раздачи
Размер:  383 MB   |    Зарегистрирован:  3 месяца 7 дней   |    Скачан:  1 раз

Полного источника не было: 2 месяца 25 дней

Сидов:  0  |  0 KB/s  ]   Личеров:  0  |  0 KB/s  ]

* - сиды/пиры с внешних источников

   
 
Автор Сообщение

ARI71 Пол:Муж

28-Авг-2016 09:02

Звезды эфира. Зиновий Гердт


Год выпуска: 2005
Жанр: документальный, биография
Страна: Россия ОАО "1 канал"
Режиссер: Олег Иваненко
Текст читает: Сергей Смирнов
Сюжет фильма:
Он успешно работал на радио и телевидении, был первым ведущим «Кинопанорамы», вел ряд популярных телепередач...
Чревовещатель при кукле, он подарил свой голос множеству персонажей, но наиболее знаменит самовлюбленный конферансье из «Необыкновенного концерта». Без преувеличения Гердт завоевал в этой роли мировое признание. В каждой стране он умудрялся вести партию конферансье на местном языке (а то и диалекте), и был столь убедителен, что простодушные зрители — и в Америке, и в Японии, и повсюду — свято верили, что актеру их язык известен в тонкостях. В кинематограф Зиновий Гердт вошел как актер дубляжа, закадрового текста, долгое время оставаясь «за ширмой» подобно кукольнику. Голосом Гердта говорили звезды зарубежного экрана: Тото («Полицейские и воры» 1951), Де Сика, Ричард Харрис, Питер О’Тул, а также Юри Ярвет в роли короля Лира. В знаменитом фильме «Фанфан-Тюльпан» (1952) он говорил за автора..

Зино́вий Ефи́мович Гердт (настоящее имя — За́лман Афро́имович Храпино́вич; 8 [21] сентября 1916, Себеж, Витебская губерния, Российская империя — 18 ноября 1996, Москва, Россия) — советский и российский актёр театра и кино. Народный артист СССР (1990).
Качество видео: SatRip

Продолжительность: 00:26:10
Формат: AVI
Видео: DivX 5, 704x528, 1843 kbps
Аудио: русский, (оригинал), MP3 2.0, 192.00 kbps

Код:

Общее
Полное имя : D:\Zvezdy.efira.Z.Gerdt.SATRip.avi
Формат : AVI
Формат/Информация : Audio Video Interleave
Размер файла : 383 Мбайт
Продолжительность : 26 м.
Общий поток : 2045 Кбит/сек
Программа кодирования : VirtualDubMod 1.5.10.2 (build 2540/release)
Библиотека кодирования : VirtualDubMod build 2540/release

Видео
Идентификатор : 0
Формат : MPEG-4 Visual
Параметр BVOP формата : Нет
Параметр QPel формата : Нет
Параметр GMC формата : Без точки перехода
Параметр матрицы формата : Default (H.263)
Идентификатор кодека : DX50
Идентификатор кодека/Подсказка : DivX 5
Продолжительность : 26 м.
Битрейт : 1843 Кбит/сек
Ширина : 704 пикселя
Высота : 528 пикселей
Соотношение сторон : 4:3
Частота кадров : 25,000 кадров/сек
Цветовое пространство : YUV
Субдискретизация насыщенности : 4:2:0
Битовая глубина : 8 бит
Тип развёртки : Прогрессивная
Метод сжатия : С потерями
Бит/(Пиксели*Кадры) : 0.198
Размер потока : 345 Мбайт (90%)
Библиотека кодирования : DivX 5.0.5 (UTC 2003-04-24)

Аудио
Идентификатор : 1
Формат : MPEG Audio
Версия формата : Version 1
Профиль формата : Layer 3
Режим : Joint stereo
Идентификатор кодека : 55
Идентификатор кодека/Подсказка : MP3
Продолжительность : 26 м.
Вид битрейта : Постоянный
Битрейт : 192 Кбит/сек
Каналы : 2 канала
Частота : 48,0 КГц
Метод сжатия : С потерями
Задержка видео : 12 мс.
Размер потока : 35,9 Мбайт (9%)
Выравнивание : Разделение по промежуткам
Продолжительность промежутка : 40 мс. (1,00 видеокадр)
Время предзагрузки промежутка : 500 мс.
picpicpicpicpic
Для увеличения картинки щелкните мышкой по превью

Этот торрент недоступен для скачивания без регистрации, однако доступен по публичной magnet-ссылке (источники с публичных трекеров). Перед использованием ссылки прочтите, пожалуйста Пользовательское соглашение, а также как можно дольше оставайтесь на раздаче! Для того, чтобы скачать сам торрент-файл (который видит больше источников), а также для того, чтобы поблагодарить релизера, вам необходимо зарегистрироваться. Если регистрироваться лень - вы можете также попробовать скачать релиз по нашим партнерским ссылкам ниже.

[underverse.su].t69493.torrent
Трекер: Зарегистрирован   [ 28.08.2016 09:02 ]  

Статус: проверено (by makkol at 28.08.2016 11:22)
Поблагодарили: пока никто не поблагодарил...
Тип торрента: публичный - доступные источники с открытых трекеров: 
Размер: 383 MB (занимает 0,09 DVDR, для записи нужно 1 болванка DVDR/RW)
 
 
Похожие темы
Форум Тема Автор Торрент Отв. Посл. сооб.
Личности Звезды эфира: Маврикиевна и Никитична (Георгий Ананов) [2004 г., документальный, биография, искусство, SatRip] ARI71
6 | 0

1 | 267

1

21.11.2016 18:26

Личности Звезды эфира. Николай Озеров (Олег Иваненко) [2004 г., документальный, биография, SatRip] ARI71
0 | 0

0 | 279

3

27.08.2016 12:12

Личности Звезды эфира. Юрий Сенкевич (Олег Иваненко) [2004 г., документальный, биография, SatRip] ARI71
0 | 1

0 | 259

1

27.08.2016 12:29

Личности Звезды эфира. Николай Дроздов (Олег Иваненко) [2005 г., документальный, биография, SatRip] ARI71
0 | 0

0 | 398

0

28.08.2016 08:49

Личности Звезды эфира. Сергей Супонев (Олег Иваненко) [2005 г., документальный, биография, SatRip] ARI71
0 | 1

0 | 184

0

29.08.2016 18:00

Личности Звезды эфира. Александр Бовин (Олег Иваненко) [2004 г., документальный, биография, TVRip] ARI71
0 | 0

0 | 168

0

29.08.2016 18:12

Личности Звезды эфира. Александр Иванов (Олег Иваненко) [2004 г., документальный, биография, VHSRip] ARI71
5 | 0

0 | 406

0

31.08.2016 19:38


Яндекс.Метрика powered by Sphinx


В Н И М А Н И Е
Сайт не распространяет и не хранит электронные версии произведений, а лишь бесплатно и без коммерческой выгоды (не требуя взамен платы,
SMS и т.д.) предоставляет доступ к создаваемому пользователями каталогу ссылок на торрент-файлы, которые содержат только списки хеш-сумм.
Убедительная просьба с жалобами обращаться напрямую к пользователю, разместившему торрент файл.

Вверх