Loading...
Error

Рысья жизнь / The Lynx Liaison (Томас Хулик) [2010 г., документальный, природа, фауна, HDTV 1080i] Dub

Статистика раздачи
Размер:  4,14 GB   |    Зарегистрирован:  3 месяца 14 дней   |    Скачан:  0 раз

Полного источника не было: Никогда

Сидов:  0  |  0 KB/s  ]   Личеров:  0  |  0 KB/s  ]

* - сиды/пиры с внешних источников

   
 
Автор Сообщение

ARI71 Пол:Муж

27-Авг-2016 14:22

Рысья жизнь / The Lynx Liaison


Год выпуска: 2010
Жанр: документальный, природа, фауна
Страна: Австрия , Германия , Словакия ORF, Cosmos Factory, NDR, STV Slovenska Televizia
Режиссер: Томас Хулик
Перевод: русский, (дублированный)
В ролях: Милош Майда
Сюжет фильма:
Уши с кисточками, короткий хвостик и доверчивый вид, кто-то может даже подумать, что рыси – просто большие кошки. Это история дружбы рейнджера Милош Майда, работающего в национальном парке Словакии Малая Фатра, и двух детенышей рыси, которых он надеется выпустить на волю. Милош и кинематографист Томас Хулик наблюдают за двухлетним путешествием двух рысят из питомника в дикую среду.
Качество видео: HDTV 1080i

Продолжительность: 00:50:17
Формат: MPEG-TS
Видео: AVC, 1920x1080 (16:9), 25 fps, Main@L4, ~10,7 mbps avg, 0.207 bit/pixel
Аудио: 48 kHz, AC3, 6 ch, ~448.00 kbps avg

Код:

Общее
Идентификатор : 1 (0x1)
Полное имя : D:\The Lynx Liaison.2010-Nikolay_-_-.ts
Формат : MPEG-TS
Размер файла : 4,14 Гбайт
Продолжительность : 50 м.
Режим общего битрейта : Переменный
Общий поток : 11,8 Мбит/сек

Видео
Идентификатор : 69 (0x45)
Идентификатор меню : 1 (0x1)
Формат : AVC
Формат/Информация : Advanced Video Codec
Профиль формата : Main@L4
Параметр CABAC формата : Да
Параметр ReFrames формата : 3 кадра
Идентификатор кодека : 27
Продолжительность : 50 м.
Битрейт : 10,7 Мбит/сек
Ширина : 1920 пикселей
Высота : 1080 пикселей
Соотношение сторон : 16:9
Частота кадров : 25,000 кадров/сек
Стандарт вещания : Component
Цветовое пространство : YUV
Субдискретизация насыщенности : 4:2:0
Битовая глубина : 8 бит
Тип развёртки : Чересстрочная
Метод сохранения типа развёртки : Раздельные поля
Порядок развёртки : Верхнее поле первое
Бит/(Пиксели*Кадры) : 0.207
Размер потока : 3,77 Гбайт (91%)
Цветовой диапазон : Limited
Основные цвета : BT.709
Характеристики трансфера : BT.709
Коэффициенты матрицы : BT.709

Аудио
Идентификатор : 68 (0x44)
Идентификатор меню : 1 (0x1)
Формат : AC-3
Формат/Информация : Audio Coding 3
Расширение режима : CM (complete main)
Параметр Endianness формата : Big
Идентификатор кодека : 6
Продолжительность : 50 м.
Вид битрейта : Постоянный
Битрейт : 448 Кбит/сек
Каналы : 6 каналов
Расположение каналов : Front: L C R, Side: L R, LFE
Частота : 48,0 КГц
Частота кадров : 31,250 кадров/сек (1536 spf)
Метод сжатия : С потерями
Размер потока : 161 Мбайт (4%)
Язык : Russian
picpicpicpicpic
Для увеличения картинки щелкните мышкой по превью

Этот торрент недоступен для скачивания без регистрации, однако доступен по публичной magnet-ссылке (источники с публичных трекеров). Перед использованием ссылки прочтите, пожалуйста Пользовательское соглашение, а также как можно дольше оставайтесь на раздаче! Для того, чтобы скачать сам торрент-файл (который видит больше источников), а также для того, чтобы поблагодарить релизера, вам необходимо зарегистрироваться. Если регистрироваться лень - вы можете также попробовать скачать релиз по нашим партнерским ссылкам ниже.

[underverse.su].t69475.torrent
Трекер: Зарегистрирован   [ 27.08.2016 14:22 ]  

Статус: проверено (by makkol at 30.08.2016 21:46)
Поблагодарили: пока никто не поблагодарил...
Тип торрента: публичный - доступные источники с открытых трекеров: 
Размер: 4,14 GB (занимает 0,94 DVDR, для записи нужно 1 болванка DVDR/RW)
 
 

Яндекс.Метрика powered by Sphinx


В Н И М А Н И Е
Сайт не распространяет и не хранит электронные версии произведений, а лишь бесплатно и без коммерческой выгоды (не требуя взамен платы,
SMS и т.д.) предоставляет доступ к создаваемому пользователями каталогу ссылок на торрент-файлы, которые содержат только списки хеш-сумм.
Убедительная просьба с жалобами обращаться напрямую к пользователю, разместившему торрент файл.

Вверх