Loading...
Error

Звезды эфира. Юрий Сенкевич (Олег Иваненко) [2004 г., документальный, биография, SatRip]

Статистика раздачи
Размер:  386 MB   |    Зарегистрирован:  3 месяца 9 дней   |    Скачан:  1 раз

Полного источника не было: 3 месяца 3 дня

Сидов:  0  |  0 KB/s  ]   Личеров:  0  |  0 KB/s  ]

* - сиды/пиры с внешних источников

   
 
Автор Сообщение

ARI71 Пол:Муж

27-Авг-2016 12:29

Звезды эфира. Юрий Сенкевич


Год выпуска: 2004
Жанр: документальный, биография
Страна: Россия ОАО "1 канал"
Режиссер: Олег Иваненко
Текст читает: Илья Прудовский
Сюжет фильма:
В 1973 г. Ю.А.Сенкевич был приглашен на Центральное телевидение в качестве ведущего передачи «Клуб путешественников». Увлеченный рассказчик, отважный путешественник, он сделал передачу одной из самых любимых зрителями.
За 37 лет с начала выхода первой передачи у нее сложился определенный имидж. Это прежде всего стабильно высокий уровень, серьезность и глубина подачи материала. Передача открывала зрителям новые страны и народы, их обычаи, рождала интерес к путешествиям. Согласно различным социологическим исследованиям у «Клуба путешественников» существовала своя устойчивая многомиллионная аудитория. Передача занесена в книгу рекордов Гинесса.
Юрий Александрович участвовал в формировании тематического плана, организации съемок, подборе авторов сюжетов и выступающих. Со съемочными группами он побывал во многих странах, на всех континентах Земли.
К нему - известному путешественнику, участнику многих сложных и уникальных экспедиций приходили в гости на передачу многие всемирно известные путешественники - Тур Хейрдал, Жак Ив Кусто, Карло Маури, Бруно Вайлатти, Жак Майоль, Жан Мэлори, Федор Конюхов, Яцек Палкевич, Михаил Малахов и многие другие.
В последние годы, являясь руководителем и ведущим программы, а также директором студии «Клуб путешественников», Юрий Александрович реализовал свою идею тематических передач и ввел ряд новых рубрик («Любовь моя и тревога» (Экологические проблемы), «Столицы мира», «Малые города России», «Телевизионный атлас России» и др.).

За многолетнюю и многогранную работу на телевидении в 1997 году его избрали академиком Российской телевизионной академии, передача «Клуб путешественников» награждена высшей наградой Российского телевидения «ТЭФИ».

Ю́рий Алекса́ндрович Сенке́вич (4 марта 1937, Баян-Тумен — 25 сентября 2003, Москва) — советский и русский учёный-медик и телеведущий. Кандидат медицинских наук, полковник медицинской службы в отставке, лауреат Государственной премии СССР, академик Российской телевизионной академии, президент Ассоциации путешественников России, ведущий старейшей телепередачи советского и российского телевидения «Клуб путешественников».

Качество видео: SatRip

Продолжительность: 00:26:27
Формат: AVI
Видео: DivX 5, 704x528, 1839 kbps
Аудио: русский, (оригинал), MP3 2.0, 192.00 kbps

Код:

Общее
Полное имя : D:\Zvezdy.efira.Senkevich.SATRip.avi
Формат : AVI
Формат/Информация : Audio Video Interleave
Размер файла : 386 Мбайт
Продолжительность : 26 м.
Общий поток : 2041 Кбит/сек
Программа кодирования : VirtualDubMod 1.5.10.2 (build 2540/release)
Библиотека кодирования : VirtualDubMod build 2540/release

Видео
Идентификатор : 0
Формат : MPEG-4 Visual
Параметр BVOP формата : Нет
Параметр QPel формата : Нет
Параметр GMC формата : Без точки перехода
Параметр матрицы формата : Default (H.263)
Идентификатор кодека : DX50
Идентификатор кодека/Подсказка : DivX 5
Продолжительность : 26 м.
Битрейт : 1839 Кбит/сек
Ширина : 704 пикселя
Высота : 528 пикселей
Соотношение сторон : 4:3
Частота кадров : 25,000 кадров/сек
Цветовое пространство : YUV
Субдискретизация насыщенности : 4:2:0
Битовая глубина : 8 бит
Тип развёртки : Прогрессивная
Метод сжатия : С потерями
Бит/(Пиксели*Кадры) : 0.198
Размер потока : 348 Мбайт (90%)
Библиотека кодирования : DivX 5.0.5 (UTC 2003-04-24)

Аудио
Идентификатор : 1
Формат : MPEG Audio
Версия формата : Version 1
Профиль формата : Layer 3
Режим : Joint stereo
Идентификатор кодека : 55
Идентификатор кодека/Подсказка : MP3
Продолжительность : 26 м.
Вид битрейта : Постоянный
Битрейт : 192 Кбит/сек
Каналы : 2 канала
Частота : 48,0 КГц
Метод сжатия : С потерями
Задержка видео : 12 мс.
Размер потока : 36,3 Мбайт (9%)
Выравнивание : Разделение по промежуткам
Продолжительность промежутка : 40 мс. (1,00 видеокадр)
Время предзагрузки промежутка : 500 мс.
picpicpicpicpic
Для увеличения картинки щелкните мышкой по превью

Этот торрент недоступен для скачивания без регистрации, однако доступен по публичной magnet-ссылке (источники с публичных трекеров). Перед использованием ссылки прочтите, пожалуйста Пользовательское соглашение, а также как можно дольше оставайтесь на раздаче! Для того, чтобы скачать сам торрент-файл (который видит больше источников), а также для того, чтобы поблагодарить релизера, вам необходимо зарегистрироваться. Если регистрироваться лень - вы можете также попробовать скачать релиз по нашим партнерским ссылкам ниже.

[underverse.su].t69474.torrent
Трекер: Зарегистрирован   [ 27.08.2016 12:29 ]  

Статус: проверено (by makkol at 27.08.2016 14:15)
Поблагодарили: пока никто не поблагодарил...
Тип торрента: публичный - доступные источники с открытых трекеров: 
Размер: 386 MB (занимает 0,09 DVDR, для записи нужно 1 болванка DVDR/RW)
 
 
Похожие темы
Форум Тема Автор Торрент Отв. Посл. сооб.
Личности Звезды эфира: Маврикиевна и Никитична (Георгий Ананов) [2004 г., документальный, биография, искусство, SatRip] ARI71
3 | 0

1 | 270

1

21.11.2016 18:26

Личности Звезды эфира. Николай Озеров (Олег Иваненко) [2004 г., документальный, биография, SatRip] ARI71
0 | 0

0 | 279

3

27.08.2016 12:12

Личности Звезды эфира. Николай Дроздов (Олег Иваненко) [2005 г., документальный, биография, SatRip] ARI71
0 | 0

0 | 398

0

28.08.2016 08:49

Личности Звезды эфира. Зиновий Гердт (Олег Иваненко) [2005 г., документальный, биография, SatRip] ARI71
1 | 0

0 | 268

1

28.08.2016 09:02

Личности Звезды эфира. Сергей Супонев (Олег Иваненко) [2005 г., документальный, биография, SatRip] ARI71
0 | 1

0 | 184

0

29.08.2016 18:00

Личности Звезды эфира. Александр Бовин (Олег Иваненко) [2004 г., документальный, биография, TVRip] ARI71
0 | 0

0 | 168

0

29.08.2016 18:12

Личности Звезды эфира. Александр Иванов (Олег Иваненко) [2004 г., документальный, биография, VHSRip] ARI71
5 | 0

0 | 407

0

31.08.2016 19:38


Яндекс.Метрика powered by Sphinx


В Н И М А Н И Е
Сайт не распространяет и не хранит электронные версии произведений, а лишь бесплатно и без коммерческой выгоды (не требуя взамен платы,
SMS и т.д.) предоставляет доступ к создаваемому пользователями каталогу ссылок на торрент-файлы, которые содержат только списки хеш-сумм.
Убедительная просьба с жалобами обращаться напрямую к пользователю, разместившему торрент файл.

Вверх