Loading...
Error

Звезды эфира. Николай Озеров (Олег Иваненко) [2004 г., документальный, биография, SatRip]

Статистика раздачи
Размер:  383 MB   |    Зарегистрирован:  3 месяца 8 дней   |    Скачан:  3 раза

Полного источника не было: 3 месяца 1 день

Сидов:  0  |  0 KB/s  ]   Личеров:  0  |  0 KB/s  ]

* - сиды/пиры с внешних источников

   
 
Автор Сообщение

ARI71 Пол:Муж

27-Авг-2016 12:12

Звезды эфира. Николай Озеров


Год выпуска: 2004
Жанр: документальный, биография
Страна: Россия ООО "Телекомпания "Плазма", ОАО "Первый канал"
Режиссер: Олег Иваненко
Текст читает: Илья Прудовский
Сюжет фильма:
Фильм знакомит зрителя с малоизвестными фактами из жизни знаменитого комментатора, спортсмена, актера Николая Николаевича Озерова.
В советские времена не существовало понятия «звезда», не было глянцевых журналов и рубрик о светской жизни. О том, что происходило с популярными ведущими радио и телевидения за кадром, зрители могли только догадываться...
В фильме принимают участие З.Соткилава, Р.Панина, Н.Дымарский, Г.Ярцев, дочь и сын Н.Озерова.

Никола́й Никола́евич О́зеров (11 декабря 1922, Москва, Советская Россия — 2 июня 1997, Москва, Российская Федерация) — советский теннисист, актёр, спортивный комментатор. Народный артист РСФСР (1973). Лауреат Государственной премии СССР (1982). Заслуженный мастер спорта СССР (1947).

Качество видео: SatRip

Продолжительность: 00:26:10
Формат: AVI
Видео: DivX 5, 704x528, 1843 kbps
Аудио: русский, (оригинал), MP3 2.0, 192.00 kbps

Код:

Общее
Полное имя : D:\Zvezdy.efira.N.Ozerov.SATRip.avi
Формат : AVI
Формат/Информация : Audio Video Interleave
Размер файла : 383 Мбайт
Продолжительность : 26 м.
Общий поток : 2045 Кбит/сек
Программа кодирования : VirtualDubMod 1.5.10.2 (build 2540/release)
Библиотека кодирования : VirtualDub build 32661/release

Видео
Идентификатор : 0
Формат : MPEG-4 Visual
Параметр BVOP формата : Нет
Параметр QPel формата : Нет
Параметр GMC формата : Без точки перехода
Параметр матрицы формата : Default (H.263)
Идентификатор кодека : DX50
Идентификатор кодека/Подсказка : DivX 5
Продолжительность : 26 м.
Битрейт : 1843 Кбит/сек
Ширина : 704 пикселя
Высота : 528 пикселей
Соотношение сторон : 4:3
Частота кадров : 25,000 кадров/сек
Цветовое пространство : YUV
Субдискретизация насыщенности : 4:2:0
Битовая глубина : 8 бит
Тип развёртки : Прогрессивная
Метод сжатия : С потерями
Бит/(Пиксели*Кадры) : 0.198
Размер потока : 345 Мбайт (90%)
Библиотека кодирования : DivX 5.0.5 (UTC 2003-04-24)

Аудио
Идентификатор : 1
Формат : MPEG Audio
Версия формата : Version 1
Профиль формата : Layer 3
Режим : Joint stereo
Идентификатор кодека : 55
Идентификатор кодека/Подсказка : MP3
Продолжительность : 26 м.
Вид битрейта : Постоянный
Битрейт : 192 Кбит/сек
Каналы : 2 канала
Частота : 48,0 КГц
Метод сжатия : С потерями
Размер потока : 35,9 Мбайт (9%)
Выравнивание : Разделение по промежуткам
Продолжительность промежутка : 40 мс. (1,00 видеокадр)
Время предзагрузки промежутка : 500 мс.
picpicpicpicpic
Для увеличения картинки щелкните мышкой по превью

Этот торрент недоступен для скачивания без регистрации, однако доступен по публичной magnet-ссылке (источники с публичных трекеров). Перед использованием ссылки прочтите, пожалуйста Пользовательское соглашение, а также как можно дольше оставайтесь на раздаче! Для того, чтобы скачать сам торрент-файл (который видит больше источников), а также для того, чтобы поблагодарить релизера, вам необходимо зарегистрироваться. Если регистрироваться лень - вы можете также попробовать скачать релиз по нашим партнерским ссылкам ниже.

[underverse.su].t69473.torrent
Трекер: Зарегистрирован   [ 27.08.2016 12:12 ]  

Статус: проверено (by makkol at 27.08.2016 14:14)
Поблагодарили: пока никто не поблагодарил...
Тип торрента: публичный - доступные источники с открытых трекеров: 
Размер: 383 MB (занимает 0,09 DVDR, для записи нужно 1 болванка DVDR/RW)
 
 
Похожие темы
Форум Тема Автор Торрент Отв. Посл. сооб.
Личности Звезды эфира: Маврикиевна и Никитична (Георгий Ананов) [2004 г., документальный, биография, искусство, SatRip] ARI71
6 | 0

1 | 267

1

21.11.2016 18:26

Личности Звезды эфира. Юрий Сенкевич (Олег Иваненко) [2004 г., документальный, биография, SatRip] ARI71
0 | 1

0 | 259

1

27.08.2016 12:29

Личности Звезды эфира. Николай Дроздов (Олег Иваненко) [2005 г., документальный, биография, SatRip] ARI71
0 | 0

0 | 397

0

28.08.2016 08:49

Личности Звезды эфира. Зиновий Гердт (Олег Иваненко) [2005 г., документальный, биография, SatRip] ARI71
1 | 0

0 | 267

1

28.08.2016 09:02

Личности Звезды эфира. Сергей Супонев (Олег Иваненко) [2005 г., документальный, биография, SatRip] ARI71
0 | 1

0 | 184

0

29.08.2016 18:00

Личности Звезды эфира. Александр Бовин (Олег Иваненко) [2004 г., документальный, биография, TVRip] ARI71
0 | 0

0 | 168

0

29.08.2016 18:12

Личности Звезды эфира. Александр Иванов (Олег Иваненко) [2004 г., документальный, биография, VHSRip] ARI71
5 | 0

0 | 406

0

31.08.2016 19:38


Яндекс.Метрика powered by Sphinx


В Н И М А Н И Е
Сайт не распространяет и не хранит электронные версии произведений, а лишь бесплатно и без коммерческой выгоды (не требуя взамен платы,
SMS и т.д.) предоставляет доступ к создаваемому пользователями каталогу ссылок на торрент-файлы, которые содержат только списки хеш-сумм.
Убедительная просьба с жалобами обращаться напрямую к пользователю, разместившему торрент файл.

Вверх