Loading...
Error

Неуловимые: Джекпот (Артем Аксененко) [2016 г., приключения, комедия, криминал, WEB-DLRip]

Статистика раздачи
Размер:  1,37 GB   |    Зарегистрирован:  3 месяца 11 дней   |    Скачан:  22 раза

Полного источника не было: 13 дней

Сидов:  0  |  0 KB/s  ]   Личеров:  0  |  0 KB/s  ]

* - сиды/пиры с внешних источников

   
 
Автор Сообщение

makkol Пол:Муж

26-Авг-2016 14:19

Неуловимые: Джекпот


Год выпуска: 2016
Жанр: приключения, комедия, криминал
Производство: Россия [Ультра Стори]
Режиссер: Артем Аксененко
В ролях: Александра Бортич, Иван Шахназаров, Илья Маланин, Анвар Халилулаев, Илья Шидловский
Сюжет фильма:
В основе сюжета фильма – новые головокружительные приключения четверки «Неуловимых». Кира, Федя, Артем и Женя продолжают борьбу с несправедливостью. Друзья полны сил и уверенности в себе, ведь им удалось наказать беспринципного олигарха Сергея Полянского и выбраться из опасной авантюры в Бангкоке. В Москве «Неуловимых» ожидает новое задание. К ним за помощью обращается девушка, брат которой пропал без вести. Друзья выясняют, что парень попал в плохую компанию и связан с подпольным казино, в котором «золотая молодежь» играет в карты на жизни простых ребят.

Качество видео: WEB-DLRip

Продолжительность: 01:21:18
Формат: AVI
Видео: XviD, 720x304 (2.35:1), 25.000 fps, 2013 kbps
Аудио: русский, оригинал, AC3 2.0, 48 kHz, 384 kbps

Код:

Format                         : AVI
Format/Info                    : Audio Video Interleave
File size                      : 1.37 GiB
Duration                       : 1 h 21 min
Overall bit rate               : 2 407 kb/s
Writing application            : VirtualDubMod 1.5.10.2 (build 2540/release)
Writing library                : VirtualDubMod build 2540/release

Video
ID                             : 0
Format                         : MPEG-4 Visual
Format profile                 : Advanced Simple@L5
Format settings, BVOP          : 2
Format settings, QPel          : No
Format settings, GMC           : No warppoints
Format settings, Matrix        : Custom
Codec ID                       : XVID
Codec ID/Hint                  : XviD
Duration                       : 1 h 21 min
Bit rate                       : 2 013 kb/s
Width                          : 720 pixels
Height                         : 304 pixels
Display aspect ratio           : 2.35:1
Frame rate                     : 25.000 FPS
Color space                    : YUV
Chroma subsampling             : 4:2:0
Bit depth                      : 8 bits
Scan type                      : Progressive
Compression mode               : Lossy
Bits/(Pixel*Frame)             : 0.368
Stream size                    : 1.14 GiB (84%)
Writing library                : XviD 1.2.1 (UTC 2008-12-04)

Audio
ID                             : 1
Format                         : AC-3
Format/Info                    : Audio Coding 3
Mode extension                 : CM (complete main)
Format settings, Endianness    : Big
Codec ID                       : 2000
Duration                       : 1 h 21 min
Bit rate mode                  : Constant
Bit rate                       : 384 kb/s
Channel(s)                     : 2 channels
Channel positions              : Front: L R
Sampling rate                  : 48.0 kHz
Frame rate                     : 31.250 FPS (1536 spf)
Compression mode               : Lossy
Stream size                    : 223 MiB (16%)
Alignment                      : Split accross interleaves
Interleave, duration           : 40  ms (1.00 video frame)
Interleave, preload duration   : 500  ms
Присутствует реклама


picpicpicpicpic
Для увеличения картинки щелкните мышкой по превью

Этот торрент недоступен для скачивания без регистрации, однако доступен по публичной magnet-ссылке (источники с публичных трекеров). Перед использованием ссылки прочтите, пожалуйста Пользовательское соглашение, а также как можно дольше оставайтесь на раздаче! Для того, чтобы скачать сам торрент-файл (который видит больше источников), а также для того, чтобы поблагодарить релизера, вам необходимо зарегистрироваться. Если регистрироваться лень - вы можете также попробовать скачать релиз по нашим партнерским ссылкам ниже.

[underverse.su].t69442.torrent
Трекер: Зарегистрирован   [ 26.08.2016 14:19 ]  

Статус: T временная (by makkol at 31.08.2016 22:58)
Поблагодарили: пока никто не поблагодарил...
Тип торрента: публичный - доступные источники с открытых трекеров: 
Размер: 1,37 GB (занимает 0,31 DVDR, для записи нужно 1 болванка DVDR/RW)
 
 
Похожие темы
Форум Тема Автор Торрент Отв. Посл. сооб.
Зарубежное кино [DVDRip, Low-Res HDRip, и т.д.] Неуловимые / Red Dawn (Дэн Брэдли) [2012 г., боевик , DVDRip] MVO Чертёнок
0 | 0

6 | 1549

78

26.02.2013 04:44

Зарубежное кино [DVDRip, Low-Res HDRip, и т.д.] Неуловимые / Red Dawn (Дэн Брэдли) [2012 г., боевик, HDRip] MVO [BaibaKo] RG NewCinema
0 | 0

4 | 2560

184

13.03.2013 11:44

Зарубежное кино [DVDRip, Low-Res HDRip, и т.д.] Неуловимые / Red Dawn (Дэн Брэдли) [2012 г., боевик, BDRip-AVC] OiVaVoi
0 | 1

0 | 1175

43

16.03.2013 09:26

Зарубежное кино [DVDRip, Low-Res HDRip, и т.д.] Неуловимые / Красный рассвет / Red Dawn (Дэн Брэдли) [2012 г., боевик, HDRip] Dub 90ytr90
1 | 0

0 | 1292

43

20.04.2013 09:35

Зарубежное кино [DVDRip, Low-Res HDRip, и т.д.] Неуловимые / Красный рассвет / Red Dawn (Дэн Брэдли) [2012 г., боевик, BDRip-AVC] Dub + Eng 90ytr90
0 | 0

0 | 1145

32

23.04.2013 16:17

Зарубежное кино [DVDRip, Low-Res HDRip, и т.д.] Неуловимые / Красный рассвет / Red Dawn (Дэн Брэдли) [2012 г., боевик, HDRip-AVC] Dub 90ytr90
2 | 0

0 | 705

17

27.04.2013 10:46

T Наше кино [DVDRip, Low-Res HDRip, и т.д.] Неуловимые (Артем Аксененко) [2015 г., Приключения, Комедия, Криминал, WEBRip] Original (RUS, iTunes) Ведьмочка
1 | 0

1 | 1221

88

08.06.2015 05:48

Наше кино [DVDRip, Low-Res HDRip, и т.д.] Неуловимые: Последний герой (Артем Аксененко) [2015 г., мелодрама, криминал, WEB-DLRip] makkol
11 | 0

0 | 456

34

07.12.2015 22:52

T Наше кино [DVDRip, Low-Res HDRip, и т.д.] Неуловимые. Бангкок (Артем Аксененко) [2016 г., триллер, криминал, мелодрама, WEB-DLRip] makkol
84 | 0

0 | 478

38

13.08.2016 11:29

Зарубежное кино [HDDVDRip / BDRip / WEB-DL / HDTV 1080/720р] Неуловимые / Красный рассвет / Red Dawn (Дэн Брэдли) [2012 г., боевик, BDRip 720p] Dub + Eng 90ytr90
2 | 0

0 | 535

12

20.04.2013 10:37


Яндекс.Метрика powered by Sphinx


В Н И М А Н И Е
Сайт не распространяет и не хранит электронные версии произведений, а лишь бесплатно и без коммерческой выгоды (не требуя взамен платы,
SMS и т.д.) предоставляет доступ к создаваемому пользователями каталогу ссылок на торрент-файлы, которые содержат только списки хеш-сумм.
Убедительная просьба с жалобами обращаться напрямую к пользователю, разместившему торрент файл.

Вверх