Loading...
Error

Мартышкины проделки / Мартышкин труд / Apenstreken / Monkey Buisnes (Йохан Нийенхейс) [2015 г., семейный, DVDRip] MVO + Original

Статистика раздачи
Размер:  1,51 GB   |    Зарегистрирован:  3 месяца 13 дней   |    Скачан:  4 раза

Полного источника не было: 56 минут

Сидов:  0  |  0 KB/s  ]   Личеров:  0  |  0 KB/s  ]

* - сиды/пиры с внешних источников

   
 
Автор Сообщение

makkol Пол:Муж

26-Авг-2016 12:48

Мартышкины проделки / Мартышкин труд
Apenstreken / Monkey Buisnes


Год выпуска: 2015
Жанр: семейный
Производство: Нидерланды [Johan Nijenhuis & Co, Farmhouse Film & TV, Mollywood]
Режиссер: Йохан Нийенхейс
В ролях: Тиго Буссемакерс, Дик Карлир, Хюс Дам, Арьян Эдервен, Ларс Хенкенс, Эйвон Ясперс, Люк Питерс, Элвин Пулинкс, Харри ван Рейтховен, Мартина Сандифорт
Сюжет фильма:
Сирота Вим мечтает учиться в школе, но его заставляют трудиться на фабрике. Когда мальчик сбегает, хозяева мануфактуры объявляют его в розыск. Теперь Виму предстоит наказать обидчиков, а помогут ему в этом верные друзья и маленькая обезьянка!

  • Мировая премьера: 10 июня 2015


Качество видео: DVDRip

Продолжительность: 01:30:50
Формат: MKV
Видео: DivX 4, 720x576@1024x576 (16:9), 24.000 fps, 1953 kbps
Аудио #1: русский, профессиональный многоголосый закадровый (Игмар), AC3 2.0, 48 kHz, 192 kbps
Аудио #2: нидерландский, оригинал, AC3 2.0, 48 kHz, 192 kbps

Код:

Формат                                   : Matroska
Версия формата                           : Version 4 / Version 2
Размер файла                             : 1,51 Гбайт
Продолжительность                        : 1 ч. 30 м.
Общий поток                              : 2385 Кбит/сек
Дата кодирования                         : UTC 2016-08-25 13:54:23
Программа кодирования                    : mkvmerge v7.9.0 ('Birds') 64bit
Библиотека кодирования                   : libebml v1.3.1 + libmatroska v1.4.2

Видео
Идентификатор                            : 1
Формат                                   : MPEG-4 Visual
Профиль формата                          : Simple@L1
Параметр BVOP формата                    : Нет
Параметр QPel формата                    : Нет
Параметр GMC формата                     : Без точки перехода
Параметр матрицы формата                 : Default (H.263)
Идентификатор кодека                     : V_MS/VFW/FOURCC / DIVX
Идентификатор кодека/Информация          : Project Mayo
Идентификатор кодека/Подсказка           : DivX 4
Продолжительность                        : 1 ч. 30 м.
Битрейт                                  : 1953 Кбит/сек
Ширина                                   : 720 пикселей
Высота                                   : 576 пикселей
Соотношение сторон                       : 16:9
Режим частоты кадров                     : Постоянный
Частота кадров                           : 24,000 кадра/сек
Цветовое пространство                    : YUV
Субдискретизация насыщенности            : 4:2:0
Битовая глубина                          : 8 бит
Тип развёртки                            : Прогрессивная
Метод сжатия                             : С потерями
Бит/(Пиксели*Кадры)                      : 0.196
Размер потока                            : 1,24 Гбайт (82%)
Библиотека кодирования                   : Lavc54.86.100
Default                                  : Да
Forced                                   : Нет

Аудио #1
Идентификатор                            : 2
Формат                                   : AC-3
Формат/Информация                        : Audio Coding 3
Расширение режима                        : CM (complete main)
Параметр Endianness формата              : Big
Идентификатор кодека                     : A_AC3
Продолжительность                        : 1 ч. 30 м.
Вид битрейта                             : Постоянный
Битрейт                                  : 192 Кбит/сек
Каналы                                   : 2 канала
Расположение каналов                     : Front: L R
Частота                                  : 48,0 КГц
Метод сжатия                             : С потерями
Размер потока                            : 125 Мбайт (8%)
Язык                                     : Russian
Default                                  : Да
Forced                                   : Нет

Аудио #2
Идентификатор                            : 3
Формат                                   : AC-3
Формат/Информация                        : Audio Coding 3
Расширение режима                        : CM (complete main)
Параметр Endianness формата              : Big
Идентификатор кодека                     : A_AC3
Продолжительность                        : 1 ч. 30 м.
Вид битрейта                             : Постоянный
Битрейт                                  : 192 Кбит/сек
Каналы                                   : 2 канала
Расположение каналов                     : Front: L R
Частота                                  : 48,0 КГц
Метод сжатия                             : С потерями
Размер потока                            : 125 Мбайт (8%)
Язык                                     : Dutch
Default                                  : Нет
Forced                                   : Нет

Меню
00:00:00.000                             : en:00:00:00.000
00:08:14.583                             : en:00:08:14.583
00:20:22.167                             : en:00:20:22.167
00:30:55.042                             : en:00:30:55.042
00:40:17.708                             : en:00:40:17.708
00:51:06.750                             : en:00:51:06.750
01:00:11.458                             : en:01:00:11.458
01:09:15.083                             : en:01:09:15.083
01:20:02.625                             : en:01:20:02.625
picpicpicpicpic
Для увеличения картинки щелкните мышкой по превью

Этот торрент недоступен для скачивания без регистрации, однако доступен по публичной magnet-ссылке (источники с публичных трекеров). Перед использованием ссылки прочтите, пожалуйста Пользовательское соглашение, а также как можно дольше оставайтесь на раздаче! Для того, чтобы скачать сам торрент-файл (который видит больше источников), а также для того, чтобы поблагодарить релизера, вам необходимо зарегистрироваться. Если регистрироваться лень - вы можете также попробовать скачать релиз по нашим партнерским ссылкам ниже.

[underverse.su].t69440.torrent
Трекер: Зарегистрирован   [ 26.08.2016 12:48 ]  

Статус: проверено (by makkol at 31.08.2016 22:56)
Поблагодарили: пока никто не поблагодарил...
Тип торрента: публичный - доступные источники с открытых трекеров: 
Размер: 1,51 GB (занимает 0,35 DVDR, для записи нужно 1 болванка DVDR/RW)
 
 
Похожие темы
Форум Тема Автор Торрент Отв. Посл. сооб.
Зарубежное кино [DVDRip, Low-Res HDRip, и т.д.] Мартышкины проделки / Мартышкин труд / Apenstreken / Monkey Buisnes (Йохан Нийенхейс / Johan Nijenhuis) [2015 г., семейный, HDRip] MVO (Игмар) 90ytr90
36 | 0

0 | 278

3

26.08.2016 16:45

Зарубежное кино [HDDVDRip / BDRip / WEB-DL / HDTV 1080/720р] Мартышкины проделки / Мартышкин труд / Apenstreken / Monkey Buisnes (Йохан Нийенхейс) [2015 г., семейный, BDRip 1080p] MVO + Original makkol
17 | 0

0 | 261

3

26.08.2016 13:14


Яндекс.Метрика powered by Sphinx


В Н И М А Н И Е
Сайт не распространяет и не хранит электронные версии произведений, а лишь бесплатно и без коммерческой выгоды (не требуя взамен платы,
SMS и т.д.) предоставляет доступ к создаваемому пользователями каталогу ссылок на торрент-файлы, которые содержат только списки хеш-сумм.
Убедительная просьба с жалобами обращаться напрямую к пользователю, разместившему торрент файл.

Вверх