Loading...
Error

Трудная мишень 2 / Hard Target 2 (Роэль Рейн) [2016 г., боевик, триллер, BDRip] Dub

Статистика раздачи
Размер:  1,45 GB   |    Зарегистрирован:  3 месяца 8 дней   |    Скачан:  35 раз
Сидов:  2  |  12 KB/s  ]   Личеров:  0  |  0 KB/s  ]

* - сиды/пиры с внешних источников

   
 
Автор Сообщение

makkol Пол:Муж

26-Авг-2016 09:14

Трудная мишень 2 / Hard Target 2


Год выпуска: 2016
Жанр: боевик, триллер
Производство: США [Living Films, Universal 1440 Entertainment]
Режиссер: Роэль Рейн
В ролях: Скотт Эдкинс, Роберт Неппер, Рона Митра, Темуэра Моррисон, Адам Саундерс, Джэйми Тимони, Питер Харди, Шон Кинэн
Сюжет фильма:
Продолжение культового экшн-триллера 1993 года о подпольных игрищах, где проплаченные «охотники» травят, как дичь, похищенных людей. Новой мишенью становится опальный мастер боевых искусств, который соблазнился деньгами, даже не подозревая, на что подписывается. Но и его преследователи еще не знают, с кем связались.

  • Мировая премьера: 6 сентября 2016


Качество видео: BDRip

Продолжительность: 01:43:33
Формат: AVI
Видео: XviD, 704x400 (16:9), 23.976 fps, 1553 kbps
Аудио: русский, дублированный (лицензия Blu-Ray CEE), AC3 5.1, 48 kHz, 448 kbps

Код:

Format : AVI
Format/Info : Audio Video Interleave
File size : 1.45 GiB
Duration : 1h 43mn
Overall bit rate : 2 010 Kbps
Writing application : VirtualDubMod 1.5.10.3 | www.virtualdub-fr.org || (build 2550/release)
Writing library : VirtualDubMod build 2550/release

Video
ID : 0
Format : MPEG-4 Visual
Format profile : Advanced Simple@L5
Format settings, BVOP : 1
Format settings, QPel : No
Format settings, GMC : No warppoints
Format settings, Matrix : Custom
Codec ID : XVID
Codec ID/Hint : XviD
Duration : 1h 43mn
Bit rate : 1 553 Kbps
Width : 704 pixels
Height : 400 pixels
Display aspect ratio : 16:9
Frame rate : 23.976 (23976/1000) fps
Color space : YUV
Chroma subsampling : 4:2:0
Bit depth : 8 bits
Scan type : Progressive
Compression mode : Lossy
Bits/(Pixel*Frame) : 0.230
Stream size : 1.12 GiB (77%)
Writing library : XviD 73

Audio
ID : 1
Format : AC-3
Format/Info : Audio Coding 3
Mode extension : CM (complete main)
Format settings, Endianness : Big
Codec ID : 2000
Duration : 1h 43mn
Bit rate mode : Constant
Bit rate : 448 Kbps
Channel(s) : 6 channels
Channel positions : Front: L C R, Side: L R, LFE
Sampling rate : 48.0 KHz
Frame rate : 31.250 fps (1536 spf)
Compression mode : Lossy
Stream size : 332 MiB (22%)
Alignment : Split accross interleaves
Interleave, duration : 42 ms (1.00 video frame)
Interleave, preload duratio : 500 ms
Релиз:

picpicpicpicpic
Для увеличения картинки щелкните мышкой по превью

Этот торрент недоступен для скачивания без регистрации, однако доступен по публичной magnet-ссылке (источники с публичных трекеров). Перед использованием ссылки прочтите, пожалуйста Пользовательское соглашение, а также как можно дольше оставайтесь на раздаче! Для того, чтобы скачать сам торрент-файл (который видит больше источников), а также для того, чтобы поблагодарить релизера, вам необходимо зарегистрироваться. Если регистрироваться лень - вы можете также попробовать скачать релиз по нашим партнерским ссылкам ниже.

[underverse.su].t69433.torrent
Трекер: Зарегистрирован   [ 26.08.2016 09:14 ]  

Статус: проверено (by makkol at 31.08.2016 22:51)
Поблагодарили: 1 человек
Тип торрента: публичный - доступные источники с открытых трекеров: 
Размер: 1,45 GB (занимает 1/3 DVDR, для записи нужно 1 болванка DVDR/RW)
 
 
Похожие темы
Форум Тема Автор Торрент Отв. Посл. сооб.
Зарубежное кино [DVDRip, Low-Res HDRip, и т.д.] Трудная мишень 2 / Hard Target 2 (Роэль Рейн) [2016 г., боевик, триллер, BDRip] Dub + Original (Eng) 90ytr90
39 | 0

0 | 412

12

27.08.2016 05:57

Зарубежное кино [DVDRip, Low-Res HDRip, и т.д.] Трудная мишень 2 / Hard Target 2 (Роэль Рейн) [2016 г., боевик, триллер, BDRip] Dub 90ytr90
43 | 2

0 | 420

10

27.08.2016 06:33

Зарубежное кино [DVD / HDDVD / BD / Remux] Трудная мишень / Hard Target (Джон Ву /John Woo) [1993 г., Боевик, DVD-5] [-Owlet-]
0 | 0

2 | 1947

14

15.09.2009 19:51

Зарубежное кино [DVD / HDDVD / BD / Remux] Трудная мишень 2 / Hard Target 2 (Роэль Рейн) [2016 г., боевик, триллер, BD-Remux 1080p] Dub + Original makkol
6 | 0

0 | 467

12

26.08.2016 09:36

Зарубежное кино [HDDVDRip / BDRip / WEB-DL / HDTV 1080/720р] Трудная мишень 2 / Hard Target 2 (Роэль Рейн) [2016 г., боевик, триллер, BDRip 720p] Dub + Original makkol
24 | 2

0 | 371

15

26.08.2016 09:22

Зарубежное кино [HDDVDRip / BDRip / WEB-DL / HDTV 1080/720р] Трудная мишень 2 / Hard Target 2 (Роэль Рейн) [2016 г., боевик, триллер, BDRip 1080p] Dub makkol
5 | 0

0 | 369

12

26.08.2016 09:28


Яндекс.Метрика powered by Sphinx


В Н И М А Н И Е
Сайт не распространяет и не хранит электронные версии произведений, а лишь бесплатно и без коммерческой выгоды (не требуя взамен платы,
SMS и т.д.) предоставляет доступ к создаваемому пользователями каталогу ссылок на торрент-файлы, которые содержат только списки хеш-сумм.
Убедительная просьба с жалобами обращаться напрямую к пользователю, разместившему торрент файл.

Вверх