Loading...
Error

Темнота / The Darkness (Грег МакЛин) [2016 г., ужасы, триллер, HDRip] DVO

Статистика раздачи
Размер:  1,46 GB   |    Зарегистрирован:  11 месяцев   |    Скачан:  13 раз

Полного источника не было: 3 месяца 26 дней

Сидов:  0  |  0 KB/s  ]   Личеров:  0  |  0 KB/s  ]

* - сиды/пиры с внешних источников

   
 
Автор Сообщение

makkol Пол:Муж

25-Авг-2016 13:59

Темнота / The Darkness


Год выпуска: 2016
Жанр: ужасы, триллер
Производство: США [Blumhouse Productions, Chapter One Films]
Режиссер: Грег МакЛин
В ролях: Дженнифер Моррисон, Люси Фрай, Кевин Бэйкон, Рада Митчелл, Минг-На, Дэвид Мазоуз, Мэтт Уолш, Тара Барр, Пол Райзер, Ильза Розарио
Сюжет фильма:
После отпуска в Гранд-Каньоне семья возвращается домой, невольно прихватив с собой нечто сверхъестественное. Не заставив себя долго ждать, это нечто начинает питаться их страхами и секретами…

  • Мировая премьера: 13 мая 2016


Качество видео: HDRip

Продолжительность: 01:32:21
Формат: AVI
Видео: XviD, 720x304 (2.35:1), 23.976 fps, 2059 kbps
Аудио: русский, любительский двухголосый закадровый (RecentFilms), AC3 2.0, 48 kHz, 192 kbps

Код:

Format : AVI
Format/Info : Audio Video Interleave
File size : 1.46 GiB
Duration : 1h 32mn
Overall bit rate : 2 260 Kbps
Writing application : VirtualDubMod 1.5.10.3 | (build 2550/release)
Writing library : VirtualDubMod build 2550/release

Video
ID : 0
Format : MPEG-4 Visual
Format profile : Advanced Simple@L5
Format settings, BVOP : 1
Format settings, QPel : No
Format settings, GMC : No warppoints
Format settings, Matrix : Custom
Codec ID : XVID
Codec ID/Hint : XviD
Duration : 1h 32mn
Bit rate : 2 059 Kbps
Width : 720 pixels
Height : 304 pixels
Display aspect ratio : 2.35:1
Frame rate : 23.976 (23976/1000) fps
Color space : YUV
Chroma subsampling : 4:2:0
Bit depth : 8 bits
Scan type : Progressive
Compression mode : Lossy
Bits/(Pixel*Frame) : 0.392
Stream size : 1.33 GiB (91%)
Writing library : XviD 65

Audio
ID : 1
Format : AC-3
Format/Info : Audio Coding 3
Mode extension : CM (complete main)
Format settings, Endianness : Big
Codec ID : 2000
Duration : 1h 32mn
Bit rate mode : Constant
Bit rate : 192 Kbps
Channel(s) : 2 channels
Channel positions : Front: L R
Sampling rate : 48.0 KHz
Frame rate : 31.250 fps (1536 spf)
Compression mode : Lossy
Stream size : 127 MiB (8%)
Alignment : Split accross interleaves
Interleave, duration : 42 ms (1.00 video frame)
Interleave, preload duratio : 500 ms
Релиз: Ториял
Релиз без рекламы


picpicpicpicpic
Для увеличения картинки щелкните мышкой по превью

Этот торрент недоступен для скачивания без регистрации, однако доступен по публичной magnet-ссылке (источники с публичных трекеров). Перед использованием ссылки прочтите, пожалуйста Пользовательское соглашение, а также как можно дольше оставайтесь на раздаче! Для того, чтобы скачать сам торрент-файл (который видит больше источников), а также для того, чтобы поблагодарить релизера, вам необходимо зарегистрироваться. Если регистрироваться лень - вы можете также попробовать скачать релиз по нашим партнерским ссылкам ниже.

[underverse.su].t69409.torrent
Трекер: Зарегистрирован   [ 25.08.2016 13:59 ]  

Статус: проверено (by makkol at 31.08.2016 22:47)
Поблагодарили: 1 человек
Тип торрента: публичный - доступные источники с открытых трекеров: 
Размер: 1,46 GB (занимает 1/3 DVDR, для записи нужно 1 болванка DVDR/RW)
 
 
Похожие темы
Форум Тема Автор Торрент Отв. Посл. сооб.
T Зарубежное кино [DVDRip, Low-Res HDRip, и т.д.] Темнота / The Darkness (Грег МакЛин / Greg McLean) [2016 г., ужасы, триллер, HDRip] Dub (iTunes) 90ytr90
0 | 2

0 | 347

5

15.10.2016 15:05

T Зарубежное кино [DVDRip, Low-Res HDRip, и т.д.] Темнота / The Darkness (Грег МакЛин / Greg McLean) [2016 г., ужасы, триллер, BDRip] Dub (iTunes) 90ytr90
11 | 0

0 | 199

3

15.10.2016 14:49

Зарубежное кино [DVDRip, Low-Res HDRip, и т.д.] Темнота / Dark (Ник Басиле) [2015 г., ужасы, триллер, драма, WEB-DLRip] DVO makkol
0 | 0

0 | 379

4

04.02.2016 10:37

Зарубежное кино [DVDRip, Low-Res HDRip, и т.д.] Темнота / Dark (Ник Басиле / Nick Basile) [2015 г., ужасы, триллер, драма, WEB-DLRip] DVO (Parovoz Production) + Original (Eng) 90ytr90
10 | 1

0 | 641

9

04.02.2016 15:37

Зарубежное кино [DVDRip, Low-Res HDRip, и т.д.] Темнота / The Darkness (Грег МакЛин) [2016 г., ужасы, триллер, HDRip] MVO makkol
1 | 0

0 | 391

7

27.08.2016 11:01

T Зарубежное кино [HDDVDRip / BDRip / WEB-DL / HDTV 1080/720р] Темнота / The Darkness (Грег МакЛин / Greg McLean) [2016 г., ужасы, триллер, BDRip 720p] Dub (iTunes) + Original (Eng) + Sub (Rus, Eng) 90ytr90
1 | 0

0 | 264

3

19.11.2016 20:04

T Зарубежное кино [HDDVDRip / BDRip / WEB-DL / HDTV 1080/720р] Темнота / The Darkness (Грег МакЛин / Greg McLean) [2016 г., ужасы, триллер, BDRip 1080p] Dub (iTunes) + Original (Eng) + Sub (Rus, Eng) 90ytr90
1 | 0

0 | 232

0

16.10.2016 13:39

T Зарубежное кино [HDDVDRip / BDRip / WEB-DL / HDTV 1080/720р] Темнота / The Darkness (Грег МакЛин / Greg McLean) [2016 г., ужасы, триллер, BDRip 720p] Dub (iTunes) + Original (Eng) + Sub (Rus, Eng) 90ytr90
42 | 10

0 | 248

5

16.10.2016 13:36

# Зарубежное кино [HDDVDRip / BDRip / WEB-DL / HDTV 1080/720р] Темнота / Dark (Ник Басиле / Nick Basile) [2015 г., ужасы, триллер, драма, WEB-DL 720p] DVO (Parovoz Production) + Original (Eng) 90ytr90
5 | 0

0 | 405

9

04.02.2016 15:47

Зарубежное кино [HDDVDRip / BDRip / WEB-DL / HDTV 1080/720р] Темнота / The Darkness (Грег МакЛин) [2016 г., ужасы, триллер, BDRip 1080p] DVO makkol
21 | 2

0 | 365

7

25.08.2016 14:10


Яндекс.Метрика powered by Sphinx


В Н И М А Н И Е
Сайт не распространяет и не хранит электронные версии произведений, а лишь бесплатно и без коммерческой выгоды (не требуя взамен платы,
SMS и т.д.) предоставляет доступ к создаваемому пользователями каталогу ссылок на торрент-файлы, которые содержат только списки хеш-сумм.
Убедительная просьба с жалобами обращаться напрямую к пользователю, разместившему торрент файл.

Вверх