Loading...
Error

Справедливость или хаос / Расследование / L'enquete (Венсан Гаренк) [2014 г., триллер, HDTVRip] MVO

Статистика раздачи
Размер:  1,37 GB   |    Зарегистрирован:  3 месяца 9 дней   |    Скачан:  7 раз
Сидов:  1  |  0 KB/s  ]   Личеров:  0  |  0 KB/s  ]

* - сиды/пиры с внешних источников

   
 
Автор Сообщение

makkol Пол:Муж

24-Авг-2016 21:26

Справедливость или хаос
Расследование / L'enquête


Год выпуска: 2014
Жанр: триллер
Производство: Франция , Люксембург , Бельгия [Nord-Ouest Productions, Samsa Film, Artémis Productions]
Режиссер: Венсан Гаренк
В ролях: Жиль Леллуш, Шарль Берлинг, Лорен Капеллуто, Флоранс Луаре, Кристиан Кмиотек, Грегуар Бонне, Антуан Гуи, Эрик Наггар, Жиль Арбона, Эрве Фаллю
Сюжет фильма:
Политический триллер о том, к чему может привести журналистское расследование, с Жилем Леллушем в главной роли. Разоблачение журналистом Дэни Робером темных делишек банковской фирмы Clearstream, вызывает настоящую бурю в европейском финансовом мире. Продолжая разбираться в хитросплетениях сомнительных международных банковских операций, Робер знакомится с судьей Рено ван Раимбеке, возглавляющим масштабное расследование коррупционных схем. Вскоре совместные поиски позволяют им сделать выводы, обнародование которых может иметь весьма серьезные последствия для Франции и всей Европы.

  • Мировая премьера: 11 ноября 2014


Качество видео: HDTVRip

Продолжительность: 01:37:22
Формат: AVI
Видео: XviD, 720x304 (2.35:1), 25.000 fps, 1813 kbps
Аудио: русский, профессиональный многоголосый закадровый, AC3 2.0, 48 kHz, 192 kbps

Код:

Формат : AVI
Формат/Информация : Audio Video Interleave
Размер файла : 1,37 Гбайт
Продолжительность : 1 ч. 37 м.
Общий поток : 2015 Кбит/сек
Название фильма : Spravedlivost.ili.haos.2014.tahiy
Программа кодирования : VirtualDubMod 1.5.10.3 | www.virtualdub-fr.org || (build 2550/release)

Видео
Идентификатор : 0
Формат : MPEG-4 Visual
Профиль формата : Advanced Simple@L5
Параметр BVOP формата : 1
Параметр QPel формата : Нет
Параметр GMC формата : Без точки перехода
Параметр матрицы формата : Default (MPEG)
Идентификатор кодека : XVID
Идентификатор кодека/Подсказка : XviD
Продолжительность : 1 ч. 37 м.
Битрейт : 1813 Кбит/сек
Ширина : 720 пикселей
Высота : 304 пикселя
Соотношение сторон : 2,35:1
Частота кадров : 25,000 кадров/сек
Цветовое пространство : YUV
Субдискретизация насыщенности : 4:2:0
Битовая глубина : 8 бит
Тип развёртки : Прогрессивная
Метод сжатия : С потерями
Бит/(Пиксели*Кадры) : 0.331
Размер потока : 1,23 Гбайт (90%)
Библиотека кодирования : XviD 73

Аудио
Идентификатор : 1
Формат : AC-3
Формат/Информация : Audio Coding 3
Расширение режима : CM (complete main)
Параметр Endianness формата : Big
Идентификатор кодека : 2000
Продолжительность : 1 ч. 37 м.
Вид битрейта : Постоянный
Битрейт : 192 Кбит/сек
Каналы : 2 канала
Расположение каналов : Front: L R
Частота : 48,0 КГц
Частота кадров : 31,250 кадров/сек (1536 spf)
Метод сжатия : С потерями
Размер потока : 134 Мбайт (10%)
Выравнивание : Разделение по промежуткам
Продолжительность промежутка : 40 мс. (1,00 видеокадр)
Время предзагрузки промежутка : 500 мс.
picpicpicpicpic
Для увеличения картинки щелкните мышкой по превью

Этот торрент недоступен для скачивания без регистрации, однако доступен по публичной magnet-ссылке (источники с публичных трекеров). Перед использованием ссылки прочтите, пожалуйста Пользовательское соглашение, а также как можно дольше оставайтесь на раздаче! Для того, чтобы скачать сам торрент-файл (который видит больше источников), а также для того, чтобы поблагодарить релизера, вам необходимо зарегистрироваться. Если регистрироваться лень - вы можете также попробовать скачать релиз по нашим партнерским ссылкам ниже.

[underverse.su].t69403.torrent
Трекер: Зарегистрирован   [ 24.08.2016 21:26 ]  

Статус: проверено (by makkol at 31.08.2016 22:45)
Поблагодарили: 1 человек
Тип торрента: публичный - доступные источники с открытых трекеров: 
Размер: 1,37 GB (занимает 0,31 DVDR, для записи нужно 1 болванка DVDR/RW)
 
 
Похожие темы
Форум Тема Автор Торрент Отв. Посл. сооб.
Зарубежное кино [HDDVDRip / BDRip / WEB-DL / HDTV 1080/720р] Справедливость или хаос / Расследование / L'enquete (Венсан Гаренк) [2014 г., триллер, HDTV 1080p] MVO makkol
7 | 0

0 | 289

6

24.08.2016 21:42


Яндекс.Метрика powered by Sphinx


В Н И М А Н И Е
Сайт не распространяет и не хранит электронные версии произведений, а лишь бесплатно и без коммерческой выгоды (не требуя взамен платы,
SMS и т.д.) предоставляет доступ к создаваемому пользователями каталогу ссылок на торрент-файлы, которые содержат только списки хеш-сумм.
Убедительная просьба с жалобами обращаться напрямую к пользователю, разместившему торрент файл.

Вверх