Loading...
Error

Марсель Марсо, или Сколько весит душа / Marcel Marceau ou Le Poids de L`ame (Марсель Марсо, Алан Дено, Жан-Пьер Бурго) [1992 г., документальный, биография, искусство, SatRip] VO

Статистика раздачи
Размер:  555 MB   |    Зарегистрирован:  3 месяца 10 дней   |    Скачан:  2 раза

Полного источника не было: 1 день 10 часов

Сидов:  0  |  0 KB/s  ]   Личеров:  0  |  0 KB/s  ]

* - сиды/пиры с внешних источников

   
 
Автор Сообщение

ARI71 Пол:Муж

24-Авг-2016 12:19

Марсель Марсо, или Сколько весит душа / Marcel Marceau ou Le Poids de L`ame


Год выпуска: 1992
Жанр: документальный, биография, искусство
Страна: Франция Anabase Productions
Режиссер: Марсель Марсо, Алан Дено, Жан-Пьер Бурго
В ролях: Марсель Марсо
Сюжет фильма:
Французский мастер Марсо получил всемирную известность, создав в 1947 году образ Бипа - белолицего клоуна в полосатом свитере и потрепанной шляпе.
Его постановки, многие из которых стали классическими, шли на лучших площадках, включая театр Сары Бернар и театр Елисейских полей.
Фильм-портрет, в котором один из самых известных в мире мимов рассказывает о важных моментах жизни артиста и дает ключ к пониманию магии жеста.

Марсе́ль Марсо́ (фр. Marcel Marceau, настоящее имя — Марсель Манжель (Marcel Mangel); 22 марта 1923, Страсбург — 22 сентября 2007, Каор) — французский актёр-мим, клоун, театральный педагог, создатель парижской школы мимов.

Качество видео: SatRip

Продолжительность: 00:58:52
Формат: AVI
Видео: XviD, 704x448, 1183 kbps
Аудио: русский, одноголосый (профессиональный), MP3 2.0, 128.00 kbps

Код:

Общее
Полное имя : D:\Культура_Марсель Марсо или Сколько Весит Душа.avi
Формат : AVI
Формат/Информация : Audio Video Interleave
Размер файла : 555 Мбайт
Продолжительность : 58 м.
Общий поток : 1318 Кбит/сек
Программа кодирования : VirtualDubMod 1.5.4.1 (build 2178/release)
Библиотека кодирования : VirtualDubMod build 2178/release

Видео
Идентификатор : 0
Формат : MPEG-4 Visual
Профиль формата : Advanced Simple@L5
Параметр BVOP формата : 1
Параметр QPel формата : Нет
Параметр GMC формата : Без точки перехода
Параметр матрицы формата : Выборочная
Идентификатор кодека : XVID
Идентификатор кодека/Подсказка : XviD
Продолжительность : 58 м.
Битрейт : 1183 Кбит/сек
Ширина : 704 пикселя
Высота : 448 пикселей
Соотношение сторон : 16:10
Частота кадров : 25,000 кадров/сек
Цветовое пространство : YUV
Субдискретизация насыщенности : 4:2:0
Битовая глубина : 8 бит
Тип развёртки : Прогрессивная
Метод сжатия : С потерями
Бит/(Пиксели*Кадры) : 0.150
Размер потока : 498 Мбайт (90%)
Библиотека кодирования : XviD 1.2.1 (UTC 2008-12-04)

Аудио
Идентификатор : 1
Формат : MPEG Audio
Версия формата : Version 1
Профиль формата : Layer 3
Режим : Joint stereo
Расширение режима : MS Stereo
Идентификатор кодека : 55
Идентификатор кодека/Подсказка : MP3
Продолжительность : 58 м.
Вид битрейта : Постоянный
Битрейт : 128 Кбит/сек
Каналы : 2 канала
Частота : 48,0 КГц
Метод сжатия : С потерями
Размер потока : 53,9 Мбайт (10%)
Выравнивание : Соединение по промежуткам
Продолжительность промежутка : 80 мс. (2,00 видеокадра)
Время предзагрузки промежутка : 504 мс.
Библиотека кодирования : LAME3.98r
Настройки программы : -m j -V 4 -q 2 -lowpass 17 -b 128
Перевод осуществлен студией - СВ-Дубль, по заказу - "ГТРК Культура"
picpicpicpicpic
Для увеличения картинки щелкните мышкой по превью

Этот торрент недоступен для скачивания без регистрации, однако доступен по публичной magnet-ссылке (источники с публичных трекеров). Перед использованием ссылки прочтите, пожалуйста Пользовательское соглашение, а также как можно дольше оставайтесь на раздаче! Для того, чтобы скачать сам торрент-файл (который видит больше источников), а также для того, чтобы поблагодарить релизера, вам необходимо зарегистрироваться. Если регистрироваться лень - вы можете также попробовать скачать релиз по нашим партнерским ссылкам ниже.

[underverse.su].t69394.torrent
Трекер: Зарегистрирован   [ 24.08.2016 12:22 ]  

Статус: проверено (by makkol at 24.08.2016 15:17)
Поблагодарили: пока никто не поблагодарил...
Тип торрента: публичный - доступные источники с открытых трекеров: 
Размер: 555 MB (занимает 0,12 DVDR, для записи нужно 1 болванка DVDR/RW)
 
 

Яндекс.Метрика powered by Sphinx


В Н И М А Н И Е
Сайт не распространяет и не хранит электронные версии произведений, а лишь бесплатно и без коммерческой выгоды (не требуя взамен платы,
SMS и т.д.) предоставляет доступ к создаваемому пользователями каталогу ссылок на торрент-файлы, которые содержат только списки хеш-сумм.
Убедительная просьба с жалобами обращаться напрямую к пользователю, разместившему торрент файл.

Вверх