Loading...
Error

Люди Гитлера / Hitler’s People (1-2 серии из 2) / (Питер Хартл, Александр Беркель) [2015 г., документальный, история, расследование, постановочный, HDTVRip] Dub

Статистика раздачи
Размер:  1,38 GB   |    Зарегистрирован:  3 месяца 10 дней   |    Скачан:  1 раз

Полного источника не было: 1 месяц 14 дней

Сидов:  0  |  0 KB/s  ]   Личеров:  0  |  0 KB/s  ]

* - сиды/пиры с внешних источников

   
 
Автор Сообщение

ARI71 Пол:Муж

23-Авг-2016 18:58

Люди Гитлера / Hitler’s People (1-2 серии из 2)


Год выпуска: 2015
Жанр: документальный, история, расследование, постановочный
Страна: Германия Zweites Deutsches Fernsehen (ZDF)
Режиссер: Питер Хартл, Александр Беркель
Сюжет фильма:
Гитлер мог рассчитывать на безотказную поддержку немецкого народа, даже во времена неописуемых страданий и неизбежного поражения. Как он смог этого добиться? В этом сериале мы узнаем о том, как создавался культ личности Гитлера и почему народ Германии был так предан ему от начала правления и до самого конца. Благодаря документам, дневникам, фотографиям и уникальным цветным видеоматериалам, мы сможем увидеть его диктатуру изнутри и самоотверженную поддержку фюрера народом.
Качество видео: HDTVRip

Продолжительность: 2 х ~ 00:49:25
Формат: AVI
Видео: XviD, 720x400, 1800 kbps
Аудио: русский, (дублированный), AC3 2.0, 192.00 kbps
(тех. данные всех серий идентичны)

Код:

Общее
Полное имя : D:\Люди.Гитлера.(2.серии.из.2).2015.XviD.HDTVRip.alf62\Люди.Гитлера.(1.серия).Подчинение.2015.XviD.HDTVRip.alf62.avi
Формат : AVI
Формат/Информация : Audio Video Interleave
Размер файла : 708 Мбайт
Продолжительность : 49 м.
Общий поток : 2001 Кбит/сек
Программа кодирования : VirtualDubMod 1.5.10.3 | www.virtualdub-fr.org || (build 2550/release)
Библиотека кодирования : VirtualDubMod build 2550/release

Видео
Идентификатор : 0
Формат : MPEG-4 Visual
Профиль формата : Advanced Simple@L5
Параметр BVOP формата : 1
Параметр QPel формата : Нет
Параметр GMC формата : Без точки перехода
Параметр матрицы формата : Default (MPEG)
Идентификатор кодека : XVID
Идентификатор кодека/Подсказка : XviD
Продолжительность : 49 м.
Битрейт : 1800 Кбит/сек
Ширина : 720 пикселей
Высота : 400 пикселей
Соотношение сторон : 16:9
Частота кадров : 25,000 кадров/сек
Цветовое пространство : YUV
Субдискретизация насыщенности : 4:2:0
Битовая глубина : 8 бит
Тип развёртки : Прогрессивная
Метод сжатия : С потерями
Бит/(Пиксели*Кадры) : 0.250
Размер потока : 636 Мбайт (90%)
Библиотека кодирования : XviD 73

Аудио
Идентификатор : 1
Формат : AC-3
Формат/Информация : Audio Coding 3
Расширение режима : CM (complete main)
Параметр Endianness формата : Big
Идентификатор кодека : 2000
Продолжительность : 49 м.
Вид битрейта : Постоянный
Битрейт : 192 Кбит/сек
Каналы : 2 канала
Расположение каналов : Front: L R
Частота : 48,0 КГц
Частота кадров : 31,250 кадров/сек (1536 spf)
Метод сжатия : С потерями
Размер потока : 67,9 Мбайт (10%)
Выравнивание : Разделение по промежуткам
Продолжительность промежутка : 40 мс. (1,00 видеокадр)
Время предзагрузки промежутка : 500 мс.
1. Подчинение / Conformity
Как Гитлер реконструировал страну, когда стал во главе государства? Сегодня мы увидим, как террор стал основой его фашистской политики.

2. Тотальная война / Total War
После поражения рейха под Сталинградом вера немецкого народа пошатнулась, и полное поражение было лишь вопросом времени. Но почему тогда подавляющее большинство продолжало слепо верить фюреру?
Авторство релиза - alf62
Предоставленный постер от: - Barents

Документальный дубляж - "SDI Media"
Голос рассказчика - полный дубляж
Интервью - слышна оригинальная речь

Перевод - Сергея Антонова, текст читает - Роман Антонович
pic pic pic pic pic
Для увеличения картинки щелкните мышкой по превью

Этот торрент недоступен для скачивания без регистрации, однако доступен по публичной magnet-ссылке (источники с публичных трекеров). Перед использованием ссылки прочтите, пожалуйста Пользовательское соглашение, а также как можно дольше оставайтесь на раздаче! Для того, чтобы скачать сам торрент-файл (который видит больше источников), а также для того, чтобы поблагодарить релизера, вам необходимо зарегистрироваться. Если регистрироваться лень - вы можете также попробовать скачать релиз по нашим партнерским ссылкам ниже.

[underverse.su].t69605.torrent
Трекер: Зарегистрирован   [ 31.08.2016 12:07 ]  

Статус: проверено (by 90ytr90 at 31.08.2016 13:10)
Поблагодарили: пока никто не поблагодарил...
Тип торрента: публичный - доступные источники с открытых трекеров: 
Размер: 1,38 GB (занимает 0,32 DVDR, для записи нужно 1 болванка DVDR/RW)
 
 
Похожие темы
Форум Тема Автор Торрент Отв. Посл. сооб.
Исторические фильмы Люди Гитлера / Hitler's People (1-2 серии из 2) / (Питер Хартл, Александр Беркель) [2015 г., документальный, постановочный, история, исследования, HDTVRip 720p] Dub ARI71
3 | 0

1 | 1045

5

30.08.2016 18:30

ARI71 Пол:Муж

31-Авг-2016 12:10

Обновите пожалуйста торрент-файл!

(Причина обновления: добавлена заключительная 2-я серия, заменён постер, а также заменено качество видео с SATRip на HDTVRip)

Обновление раздачи завершено!

Яндекс.Метрика powered by Sphinx


В Н И М А Н И Е
Сайт не распространяет и не хранит электронные версии произведений, а лишь бесплатно и без коммерческой выгоды (не требуя взамен платы,
SMS и т.д.) предоставляет доступ к создаваемому пользователями каталогу ссылок на торрент-файлы, которые содержат только списки хеш-сумм.
Убедительная просьба с жалобами обращаться напрямую к пользователю, разместившему торрент файл.

Вверх