Loading...
Error

Кровавая луна / Blood Moon (Джереми Вудинг) [2014 г., ужасы, триллер, вестерн, HDRip] VO

Статистика раздачи
Размер:  1,44 GB   |    Зарегистрирован:  3 месяца 18 дней   |    Скачан:  7 раз

Полного источника не было: 2 месяца 19 дней

Сидов:  0  |  0 KB/s  ]   Личеров:  0  |  0 KB/s  ]

* - сиды/пиры с внешних источников

   
 
Автор Сообщение

makkol Пол:Муж

23-Авг-2016 12:01

Кровавая луна / Blood Moon


Год выпуска: 2014
Жанр: ужасы, триллер, вестерн
Производство: Великобритания [Michael Vine Associates, Plumcourt Production, Stretch Limo Productions]
Режиссер: Джереми Вудинг
В ролях: Джордж Благден, Том Котчер, Бэрри Де Ла Рош, Раффаэлло Дегруттола, Шон Дули, Джек Фокс, Дэйв Фултон, Кори Джонсон, Тони Ло, Элинор Мацуура
Сюжет фильма:
1887 год, Колорадо. Пустынный город освещен сиянием красноватого полнолуния. Дилижанс, полный пассажиров, и загадочный стрелок в плену у двух преступников, находящихся в бегах. Когда путешественники пытаются перехитрить преступников, становится очевидным, что большая угроза таится снаружи. Зверь, который появляется только в ночь кроваво-красной луны.

  • Мировая премьера: 25 августа 2014


Качество видео: HDRip

Продолжительность: 01:25:43
Формат: AVI
Видео: XviD, 720x304 (2.35:1), 24.000 fps, 2202 kbps
Аудио: русский, любительский одноголосый закадровый (Хихикающий доктор), MP3 2.0, 44.1 kHz, 192 kbps
Субтитры: английские внешние, SRT

Код:

Формат                                   : AVI
Формат/Информация                        : Audio Video Interleave
Профиль формата                          : OpenDML
Размер файла                             : 1,44 Гбайт
Продолжительность                        : 1 ч. 25 м.
Общий поток                              : 2408 Кбит/сек
Программа кодирования                    : XviD4PSP 6.0 / 54.29.105

Видео
Идентификатор                            : 0
Формат                                   : xvid
Идентификатор кодека                     : xvid
Продолжительность                        : 1 ч. 25 м.
Битрейт                                  : 2202 Кбит/сек
Ширина                                   : 720 пикселей
Высота                                   : 304 пикселя
Соотношение сторон                       : 2,35:1
Частота кадров                           : 24,000 кадра/сек
Тип развёртки                            : Прогрессивная
Бит/(Пиксели*Кадры)                      : 0.419
Размер потока                            : 1,32 Гбайт (91%)

Аудио
Идентификатор                            : 1
Формат                                   : MPEG Audio
Версия формата                           : Version 1
Профиль формата                          : Layer 3
Идентификатор кодека                     : 55
Идентификатор кодека/Подсказка           : MP3
Продолжительность                        : 1 ч. 25 м.
Вид битрейта                             : Постоянный
Битрейт                                  : 192 Кбит/сек
Каналы                                   : 2 канала
Частота                                  : 44,1 КГц
Метод сжатия                             : С потерями
Размер потока                            : 118 Мбайт (8%)
Выравнивание                             : Соединение по промежуткам
Продолжительность промежутка             : 26  мс. (0,63 видеокадр)
Присутствует реклама


picpicpicpicpic
Для увеличения картинки щелкните мышкой по превью

Этот торрент недоступен для скачивания без регистрации, однако доступен по публичной magnet-ссылке (источники с публичных трекеров). Перед использованием ссылки прочтите, пожалуйста Пользовательское соглашение, а также как можно дольше оставайтесь на раздаче! Для того, чтобы скачать сам торрент-файл (который видит больше источников), а также для того, чтобы поблагодарить релизера, вам необходимо зарегистрироваться. Если регистрироваться лень - вы можете также попробовать скачать релиз по нашим партнерским ссылкам ниже.

[underverse.su].t69355.torrent
Трекер: Зарегистрирован   [ 23.08.2016 12:01 ]  

Статус: проверено (by makkol at 31.08.2016 22:43)
Поблагодарили: пока никто не поблагодарил...
Тип торрента: публичный - доступные источники с открытых трекеров: 
Размер: 1,44 GB (занимает 0,33 DVDR, для записи нужно 1 болванка DVDR/RW)
 
 
Похожие темы
Форум Тема Автор Торрент Отв. Посл. сооб.
T Зарубежное кино [DVDRip, Low-Res HDRip, и т.д.] Кровавая ловушка / Blood Trap / Bite (Альберто Скьямма / Alberto Sciamma) [2015 г., ужасы, боевик, триллер, криминал, HDRip] VO (Хихидок) + Sub (Eng) 90ytr90
59 | 3

0 | 383

3

24.09.2016 18:12

Наше кино [DVDRip, Low-Res HDRip, и т.д.] Кровавая леди Батори / Lady of Csejte (Андрей Конст) [2015 г., триллер, WEB-DLRip] 90ytr90
0 | 0

0 | 814

56

28.02.2015 20:51

Наше кино [DVDRip, Low-Res HDRip, и т.д.] Кровавая леди Батори / Lady of Csejte (Андрей Конст) [2015 г., триллер, WEB-DLRip] 90ytr90
0 | 0

0 | 725

24

01.03.2015 09:42

T Наше кино [DVDRip, Low-Res HDRip, и т.д.] Кровавая леди Батори / Lady of Csejte (Андрей Конст) [2015 г., триллер, WEB-DLRip] Паукан
12 | 0

1 | 740

30

08.06.2015 05:56

Наше кино [HDDVDRip / BDRip / WEB-DL / HDTV 1080/720р] Кровавая леди Батори / Lady of Csejte (Андрей Конст) [2015 г., триллер, WEB-DL 720p] 90ytr90
5 | 0

0 | 673

22

28.02.2015 20:53

Наше кино [HDDVDRip / BDRip / WEB-DL / HDTV 1080/720р] Кровавая леди Батори / Lady of Csejte (Андрей Конст) [2015 г., триллер, WEB-DL 1080p] 90ytr90
1 | 0

0 | 737

28

01.03.2015 09:46


Яндекс.Метрика powered by Sphinx


В Н И М А Н И Е
Сайт не распространяет и не хранит электронные версии произведений, а лишь бесплатно и без коммерческой выгоды (не требуя взамен платы,
SMS и т.д.) предоставляет доступ к создаваемому пользователями каталогу ссылок на торрент-файлы, которые содержат только списки хеш-сумм.
Убедительная просьба с жалобами обращаться напрямую к пользователю, разместившему торрент файл.

Вверх